  0
SECTION
  2
HEADER
  9
$ACADVER
  1
AC1024
  9
$ACADMAINTVER
 70
     6
  9
$DWGCODEPAGE
  3
ANSI_1252
  9
$INSBASE
 10
0.0
 20
0.0
 30
0.0
  9
$EXTMIN
 10
-863.124420989646
 20
-194.17688489257
 30
0.0
  9
$EXTMAX
 10
1220.767343716236
 20
720.58311510743
 30
0.0
  9
$LIMMIN
 10
0.0
 20
0.0
  9
$LIMMAX
 10
420.0
 20
297.0
  9
$ORTHOMODE
 70
     0
  9
$REGENMODE
 70
     1
  9
$FILLMODE
 70
     1
  9
$QTEXTMODE
 70
     0
  9
$MIRRTEXT
 70
     1
  9
$LTSCALE
 40
5.0
  9
$ATTMODE
 70
     1
  9
$TEXTSIZE
 40
2.5
  9
$TRACEWID
 40
1.0
  9
$TEXTSTYLE
  7
Standard
  9
$CLAYER
  8
0
  9
$CELTYPE
  6
ByLayer
  9
$CECOLOR
 62
   256
  9
$CELTSCALE
 40
1.0
  9
$DISPSILH
 70
     0
  9
$DIMSCALE
 40
1.0
  9
$DIMASZ
 40
2.5
  9
$DIMEXO
 40
0.625
  9
$DIMDLI
 40
3.75
  9
$DIMRND
 40
0.0
  9
$DIMDLE
 40
0.0
  9
$DIMEXE
 40
1.25
  9
$DIMTP
 40
0.0
  9
$DIMTM
 40
0.0
  9
$DIMTXT
 40
2.5
  9
$DIMCEN
 40
2.5
  9
$DIMTSZ
 40
0.0
  9
$DIMTOL
 70
     0
  9
$DIMLIM
 70
     0
  9
$DIMTIH
 70
     0
  9
$DIMTOH
 70
     0
  9
$DIMSE1
 70
     0
  9
$DIMSE2
 70
     0
  9
$DIMTAD
 70
     1
  9
$DIMZIN
 70
     8
  9
$DIMBLK
  1

  9
$DIMASO
 70
     1
  9
$DIMSHO
 70
     1
  9
$DIMPOST
  1

  9
$DIMAPOST
  1

  9
$DIMALT
 70
     0
  9
$DIMALTD
 70
     3
  9
$DIMALTF
 40
0.03937007874
  9
$DIMLFAC
 40
1.0
  9
$DIMTOFL
 70
     1
  9
$DIMTVP
 40
0.0
  9
$DIMTIX
 70
     0
  9
$DIMSOXD
 70
     0
  9
$DIMSAH
 70
     0
  9
$DIMBLK1
  1

  9
$DIMBLK2
  1

  9
$DIMSTYLE
  2
ISO-25
  9
$DIMCLRD
 70
     0
  9
$DIMCLRE
 70
     0
  9
$DIMCLRT
 70
     0
  9
$DIMTFAC
 40
1.0
  9
$DIMGAP
 40
0.625
  9
$DIMJUST
 70
     0
  9
$DIMSD1
 70
     0
  9
$DIMSD2
 70
     0
  9
$DIMTOLJ
 70
     0
  9
$DIMTZIN
 70
     8
  9
$DIMALTZ
 70
     0
  9
$DIMALTTZ
 70
     0
  9
$DIMUPT
 70
     0
  9
$DIMDEC
 70
     2
  9
$DIMTDEC
 70
     2
  9
$DIMALTU
 70
     2
  9
$DIMALTTD
 70
     3
  9
$DIMTXSTY
  7
Standard
  9
$DIMAUNIT
 70
     0
  9
$DIMADEC
 70
     0
  9
$DIMALTRND
 40
0.0
  9
$DIMAZIN
 70
     0
  9
$DIMDSEP
 70
    44
  9
$DIMATFIT
 70
     3
  9
$DIMFRAC
 70
     0
  9
$DIMLDRBLK
  1

  9
$DIMLUNIT
 70
     2
  9
$DIMLWD
 70
    -2
  9
$DIMLWE
 70
    -2
  9
$DIMTMOVE
 70
     0
  9
$DIMFXL
 40
1.0
  9
$DIMFXLON
 70
     0
  9
$DIMJOGANG
 40
0.785398163397
  9
$DIMTFILL
 70
     0
  9
$DIMTFILLCLR
 70
     0
  9
$DIMARCSYM
 70
     0
  9
$DIMLTYPE
  6

  9
$DIMLTEX1
  6

  9
$DIMLTEX2
  6

  9
$DIMTXTDIRECTION
 70
     0
  9
$LUNITS
 70
     2
  9
$LUPREC
 70
     4
  9
$SKETCHINC
 40
1.0
  9
$FILLETRAD
 40
10.0
  9
$AUNITS
 70
     0
  9
$AUPREC
 70
     0
  9
$MENU
  1
.
  9
$ELEVATION
 40
0.0
  9
$PELEVATION
 40
0.0
  9
$THICKNESS
 40
0.0
  9
$LIMCHECK
 70
     0
  9
$CHAMFERA
 40
0.0
  9
$CHAMFERB
 40
0.0
  9
$CHAMFERC
 40
0.0
  9
$CHAMFERD
 40
0.0
  9
$SKPOLY
 70
     0
  9
$TDCREATE
 40
2458082.66534213
  9
$TDUCREATE
 40
2458082.623675463
  9
$TDUPDATE
 40
2458082.665356065
  9
$TDUUPDATE
 40
2458082.623689398
  9
$TDINDWG
 40
0.0000000116
  9
$TDUSRTIMER
 40
0.0000000116
  9
$USRTIMER
 70
     1
  9
$ANGBASE
 50
0.0
  9
$ANGDIR
 70
     0
  9
$PDMODE
 70
     2
  9
$PDSIZE
 40
1.0
  9
$PLINEWID
 40
0.0
  9
$SPLFRAME
 70
     0
  9
$SPLINETYPE
 70
     6
  9
$SPLINESEGS
 70
     8
  9
$HANDSEED
  5
267
  9
$SURFTAB1
 70
     6
  9
$SURFTAB2
 70
     6
  9
$SURFTYPE
 70
     6
  9
$SURFU
 70
     6
  9
$SURFV
 70
     6
  9
$UCSBASE
  2

  9
$UCSNAME
  2

  9
$UCSORG
 10
0.0
 20
0.0
 30
0.0
  9
$UCSXDIR
 10
1.0
 20
0.0
 30
0.0
  9
$UCSYDIR
 10
0.0
 20
1.0
 30
0.0
  9
$UCSORTHOREF
  2

  9
$UCSORTHOVIEW
 70
     0
  9
$UCSORGTOP
 10
0.0
 20
0.0
 30
0.0
  9
$UCSORGBOTTOM
 10
0.0
 20
0.0
 30
0.0
  9
$UCSORGLEFT
 10
0.0
 20
0.0
 30
0.0
  9
$UCSORGRIGHT
 10
0.0
 20
0.0
 30
0.0
  9
$UCSORGFRONT
 10
0.0
 20
0.0
 30
0.0
  9
$UCSORGBACK
 10
0.0
 20
0.0
 30
0.0
  9
$PUCSBASE
  2

  9
$PUCSNAME
  2

  9
$PUCSORG
 10
0.0
 20
0.0
 30
0.0
  9
$PUCSXDIR
 10
1.0
 20
0.0
 30
0.0
  9
$PUCSYDIR
 10
0.0
 20
1.0
 30
0.0
  9
$PUCSORTHOREF
  2

  9
$PUCSORTHOVIEW
 70
     0
  9
$PUCSORGTOP
 10
0.0
 20
0.0
 30
0.0
  9
$PUCSORGBOTTOM
 10
0.0
 20
0.0
 30
0.0
  9
$PUCSORGLEFT
 10
0.0
 20
0.0
 30
0.0
  9
$PUCSORGRIGHT
 10
0.0
 20
0.0
 30
0.0
  9
$PUCSORGFRONT
 10
0.0
 20
0.0
 30
0.0
  9
$PUCSORGBACK
 10
0.0
 20
0.0
 30
0.0
  9
$USERI1
 70
     0
  9
$USERI2
 70
     0
  9
$USERI3
 70
     0
  9
$USERI4
 70
     0
  9
$USERI5
 70
     0
  9
$USERR1
 40
0.0
  9
$USERR2
 40
0.0
  9
$USERR3
 40
0.0
  9
$USERR4
 40
0.0
  9
$USERR5
 40
0.0
  9
$WORLDVIEW
 70
     1
  9
$SHADEDGE
 70
     3
  9
$SHADEDIF
 70
    70
  9
$TILEMODE
 70
     1
  9
$MAXACTVP
 70
    64
  9
$PINSBASE
 10
0.0
 20
0.0
 30
0.0
  9
$PLIMCHECK
 70
     0
  9
$PEXTMIN
 10
1.000000000000E+20
 20
1.000000000000E+20
 30
1.000000000000E+20
  9
$PEXTMAX
 10
-1.000000000000E+20
 20
-1.000000000000E+20
 30
-1.000000000000E+20
  9
$PLIMMIN
 10
0.0
 20
0.0
  9
$PLIMMAX
 10
420.0
 20
297.0
  9
$UNITMODE
 70
     0
  9
$VISRETAIN
 70
     1
  9
$PLINEGEN
 70
     0
  9
$PSLTSCALE
 70
     1
  9
$TREEDEPTH
 70
  3020
  9
$CMLSTYLE
  2
Standard
  9
$CMLJUST
 70
     0
  9
$CMLSCALE
 40
20.0
  9
$PROXYGRAPHICS
 70
     1
  9
$MEASUREMENT
 70
     1
  9
$CELWEIGHT
370
    -1
  9
$ENDCAPS
280
     0
  9
$JOINSTYLE
280
     0
  9
$LWDISPLAY
290
     0
  9
$INSUNITS
 70
     4
  9
$HYPERLINKBASE
  1

  9
$STYLESHEET
  1

  9
$XEDIT
290
     1
  9
$CEPSNTYPE
380
     0
  9
$PSTYLEMODE
290
     1
  9
$FINGERPRINTGUID
  2
{7CF0377C-6C14-47F6-A3CD-0C0B12FE07D2}
  9
$VERSIONGUID
  2
{FAEB1C32-E019-11D5-929B-00C0DF256EC4}
  9
$EXTNAMES
290
     1
  9
$PSVPSCALE
 40
0.0
  9
$OLESTARTUP
290
     0
  9
$SORTENTS
280
   127
  9
$INDEXCTL
280
     0
  9
$HIDETEXT
280
     1
  9
$XCLIPFRAME
280
     2
  9
$HALOGAP
280
     0
  9
$OBSCOLOR
 70
   257
  9
$OBSLTYPE
280
     0
  9
$INTERSECTIONDISPLAY
280
     0
  9
$INTERSECTIONCOLOR
 70
   257
  9
$DIMASSOC
280
     2
  9
$PROJECTNAME
  1

  9
$CAMERADISPLAY
290
     0
  9
$LENSLENGTH
 40
50.0
  9
$CAMERAHEIGHT
 40
0.0
  9
$STEPSPERSEC
 40
2.0
  9
$STEPSIZE
 40
6.0
  9
$3DDWFPREC
 40
2.0
  9
$PSOLWIDTH
 40
5.0
  9
$PSOLHEIGHT
 40
80.0
  9
$LOFTANG1
 40
1.570796326795
  9
$LOFTANG2
 40
1.570796326795
  9
$LOFTMAG1
 40
0.0
  9
$LOFTMAG2
 40
0.0
  9
$LOFTPARAM
 70
     7
  9
$LOFTNORMALS
280
     1
  9
$LATITUDE
 40
37.795
  9
$LONGITUDE
 40
-122.394
  9
$NORTHDIRECTION
 40
0.0
  9
$TIMEZONE
 70
 -8000
  9
$LIGHTGLYPHDISPLAY
280
     1
  9
$TILEMODELIGHTSYNCH
280
     1
  9
$CMATERIAL
347
44
  9
$SOLIDHIST
280
     0
  9
$SHOWHIST
280
     1
  9
$DWFFRAME
280
     2
  9
$DGNFRAME
280
     2
  9
$REALWORLDSCALE
290
     1
  9
$INTERFERECOLOR
 62
   256
  9
$CSHADOW
280
     0
  9
$SHADOWPLANELOCATION
 40
0.0
  0
ENDSEC
  0
SECTION
  2
CLASSES
  0
CLASS
  1
ACDBDICTIONARYWDFLT
  2
AcDbDictionaryWithDefault
  3
ObjectDBX Classes
 90
        0
 91
        4
280
     0
281
     0
  0
CLASS
  1
VISUALSTYLE
  2
AcDbVisualStyle
  3
ObjectDBX Classes
 90
     4095
 91
        4
280
     0
281
     0
  0
CLASS
  1
MATERIAL
  2
AcDbMaterial
  3
ObjectDBX Classes
 90
     1153
 91
        4
280
     0
281
     0
  0
CLASS
  1
SCALE
  2
AcDbScale
  3
ObjectDBX Classes
 90
     1153
 91
        4
280
     0
281
     0
  0
CLASS
  1
TABLESTYLE
  2
AcDbTableStyle
  3
ObjectDBX Classes
 90
     4095
 91
        4
280
     0
281
     0
  0
CLASS
  1
MLEADERSTYLE
  2
AcDbMLeaderStyle
  3
ACDB_MLEADERSTYLE_CLASS
 90
     4095
 91
        4
280
     0
281
     0
  0
CLASS
  1
SUN
  2
AcDbSun
  3
SCENEOE
 90
     1153
 91
        4
280
     0
281
     0
  0
CLASS
  1
WIPEOUT
  2
AcDbWipeout
  3
WipeOut|AutoCAD Express Tool|expresstools@autodesk.com
 90
      127
 91
        4
280
     0
281
     1
  0
CLASS
  1
DICTIONARYVAR
  2
AcDbDictionaryVar
  3
ObjectDBX Classes
 90
        0
 91
        4
280
     0
281
     0
  0
CLASS
  1
CELLSTYLEMAP
  2
AcDbCellStyleMap
  3
ObjectDBX Classes
 90
     1152
 91
        4
280
     0
281
     0
  0
CLASS
  1
WIPEOUTVARIABLES
  2
AcDbWipeoutVariables
  3
WipeOut|AutoCAD Express Tool|expresstools@autodesk.com
 90
        0
 91
        4
280
     0
281
     0
  0
ENDSEC
  0
SECTION
  2
TABLES
  0
TABLE
  2
VPORT
  5
8
330
0
100
AcDbSymbolTable
 70
     1
  0
VPORT
  5
29
330
8
100
AcDbSymbolTableRecord
100
AcDbViewportTableRecord
  2
*Active
 70
     0
 10
0.0
 20
0.0
 11
1.0
 21
1.0
 12
178.821461363295
 22
263.20311510743
 13
0.0
 23
0.0
 14
10.0
 24
10.0
 15
10.0
 25
10.0
 16
0.0
 26
0.0
 36
1.0
 17
0.0
 27
0.0
 37
0.0
 40
914.76
 41
2.27807486631
 42
50.0
 43
0.0
 44
0.0
 50
0.0
 51
0.0
 71
     0
 72
   100
 73
     1
 74
     3
 75
     0
 76
     0
 77
     0
 78
     0
281
     0
 65
     1
110
0.0
120
0.0
130
0.0
111
1.0
121
0.0
131
0.0
112
0.0
122
1.0
132
0.0
 79
     0
146
0.0
348
2F
 60
     3
 61
     5
292
     1
282
     1
141
0.0
142
0.0
 63
   250
361
6D
  0
ENDTAB
  0
TABLE
  2
LTYPE
  5
5
330
0
100
AcDbSymbolTable
 70
     3
  0
LTYPE
  5
14
330
5
100
AcDbSymbolTableRecord
100
AcDbLinetypeTableRecord
  2
ByBlock
 70
     0
  3

 72
    65
 73
     0
 40
0.0
  0
LTYPE
  5
15
330
5
100
AcDbSymbolTableRecord
100
AcDbLinetypeTableRecord
  2
ByLayer
 70
     0
  3

 72
    65
 73
     0
 40
0.0
  0
LTYPE
  5
16
330
5
100
AcDbSymbolTableRecord
100
AcDbLinetypeTableRecord
  2
Continuous
 70
     0
  3
Solid line
 72
    65
 73
     0
 40
0.0
  0
LTYPE
  5
6E
330
5
100
AcDbSymbolTableRecord
100
AcDbLinetypeTableRecord
  2
AUSGEZOGEN
 70
     0
  3

 72
    65
 73
     0
 40
0.0
  0
LTYPE
  5
6F
330
5
100
AcDbSymbolTableRecord
100
AcDbLinetypeTableRecord
  2
DASHDOT
 70
     0
  3

 72
    65
 73
     4
 40
1.0
 49
0.5
 74
     0
 49
-0.25
 74
     0
 49
0.0
 74
     0
 49
-0.25
 74
     0
  0
ENDTAB
  0
TABLE
  2
LAYER
  5
2
330
0
100
AcDbSymbolTable
 70
     7
  0
LAYER
  5
10
330
2
100
AcDbSymbolTableRecord
100
AcDbLayerTableRecord
  2
0
 70
     0
 62
     7
  6
Continuous
370
    -3
390
F
347
46
  0
LAYER
  5
72
330
2
100
AcDbSymbolTableRecord
100
AcDbLayerTableRecord
  2
FREI LASSEN
 70
     0
 62
    18
420
        0
  6
Continuous
370
    -3
390
F
347
46
  0
LAYER
  5
73
330
2
100
AcDbSymbolTableRecord
100
AcDbLayerTableRecord
  2
Detail
 70
     0
 62
     7
  6
Continuous
370
    -3
390
F
347
46
  0
LAYER
  5
74
330
2
100
AcDbSymbolTableRecord
100
AcDbLayerTableRecord
  2
Vermassung
 70
     0
 62
     7
  6
Continuous
370
    -3
390
F
347
46
  0
LAYER
  5
75
330
2
100
AcDbSymbolTableRecord
100
AcDbLayerTableRecord
  2
Text
 70
     0
 62
     7
  6
Continuous
370
    -3
390
F
347
46
  0
LAYER
  5
76
330
2
100
AcDbSymbolTableRecord
100
AcDbLayerTableRecord
  2
Schraffur
 70
     0
 62
     7
  6
Continuous
370
    -3
390
F
347
46
  0
LAYER
  5
77
330
2
100
AcDbSymbolTableRecord
100
AcDbLayerTableRecord
  2
Frei
 70
     0
 62
     7
  6
Continuous
370
    -3
390
F
347
46
  0
ENDTAB
  0
TABLE
  2
STYLE
  5
3
330
0
100
AcDbSymbolTable
 70
     3
  0
STYLE
  5
11
330
3
100
AcDbSymbolTableRecord
100
AcDbTextStyleTableRecord
  2
Standard
 70
     0
 40
0.0
 41
1.0
 50
0.0
 71
     0
 42
2.5
  3
txt
  4

  0
STYLE
  5
70
330
3
100
AcDbSymbolTableRecord
100
AcDbTextStyleTableRecord
  2
Arial
 70
     0
 40
0.0
 41
1.0
 50
0.0
 71
     0
 42
2.5
  3
arial.ttf
  4

1001
ACAD
1000
Arial
1071
        0
  0
STYLE
  5
71
330
3
100
AcDbSymbolTableRecord
100
AcDbTextStyleTableRecord
  2
Toleranzfont
 70
     0
 40
0.0
 41
1.0
 50
0.0
 71
     0
 42
2.5
  3
IGES1003.SHX
  4

  0
ENDTAB
  0
TABLE
  2
VIEW
  5
6
330
0
100
AcDbSymbolTable
 70
     0
  0
ENDTAB
  0
TABLE
  2
UCS
  5
7
330
0
100
AcDbSymbolTable
 70
     0
  0
ENDTAB
  0
TABLE
  2
APPID
  5
9
330
0
100
AcDbSymbolTable
 70
     1
  0
APPID
  5
12
330
9
100
AcDbSymbolTableRecord
100
AcDbRegAppTableRecord
  2
ACAD
 70
     0
  0
ENDTAB
  0
TABLE
  2
DIMSTYLE
  5
A
330
0
100
AcDbSymbolTable
 70
     1
100
AcDbDimStyleTable
  0
DIMSTYLE
105
27
102
{ACAD_REACTORS
330
CA
330
1A3
330
1AE
330
1C4
330
1E0
330
201
330
20B
330
215
330
21F
330
229
102
}
330
A
100
AcDbSymbolTableRecord
100
AcDbDimStyleTableRecord
  2
ISO-25
 70
     0
 41
2.5
 42
0.625
 43
3.75
 44
1.25
 73
     0
 74
     0
 77
     1
 78
     8
140
2.5
141
2.5
143
0.03937007874
147
0.625
171
     3
172
     1
178
     0
271
     2
272
     2
274
     3
278
    44
283
     0
284
     8
340
11
  0
ENDTAB
  0
TABLE
  2
BLOCK_RECORD
  5
1
330
0
100
AcDbSymbolTable
 70
    17
  0
BLOCK_RECORD
  5
1F
330
1
100
AcDbSymbolTableRecord
100
AcDbBlockTableRecord
  2
*Model_Space
340
22
 70
     0
280
     1
281
     0
  0
BLOCK_RECORD
  5
1B
330
1
100
AcDbSymbolTableRecord
100
AcDbBlockTableRecord
  2
*Paper_Space
340
1E
 70
     0
280
     1
281
     0
  0
BLOCK_RECORD
  5
23
330
1
100
AcDbSymbolTableRecord
100
AcDbBlockTableRecord
  2
*Paper_Space0
340
26
 70
     0
280
     1
281
     0
  0
BLOCK_RECORD
  5
78
330
1
100
AcDbSymbolTableRecord
100
AcDbBlockTableRecord
  2
VERSCHLU_nNn00
340
0
102
{BLKREFS
331
7D
102
}
 70
     0
280
     1
281
     0
  0
BLOCK_RECORD
  5
7E
330
1
100
AcDbSymbolTableRecord
100
AcDbBlockTableRecord
  2
VERSCHLU_nNn01
340
0
102
{BLKREFS
331
88
102
}
 70
     0
280
     1
281
     0
  0
BLOCK_RECORD
  5
89
330
1
100
AcDbSymbolTableRecord
100
AcDbBlockTableRecord
  2
Verschlussteil_nNn02
340
0
102
{BLKREFS
331
9F
102
}
 70
     0
280
     1
281
     0
  0
BLOCK_RECORD
  5
C1
330
1
100
AcDbSymbolTableRecord
100
AcDbBlockTableRecord
  2
*D4
340
0
 70
     0
280
     1
281
     0
  0
BLOCK_RECORD
  5
CD
330
1
100
AcDbSymbolTableRecord
100
AcDbBlockTableRecord
  2
Lochrost 109 rund_nNn04
340
0
102
{BLKREFS
331
F8
102
}
 70
     0
280
     1
281
     0
  0
BLOCK_RECORD
  5
F9
330
1
100
AcDbSymbolTableRecord
100
AcDbBlockTableRecord
  2
Verschluss standrohr_nNn05
340
0
102
{BLKREFS
331
197
102
}
 70
     0
280
     1
281
     0
  0
BLOCK_RECORD
  5
19A
330
1
100
AcDbSymbolTableRecord
100
AcDbBlockTableRecord
  2
*D7
340
0
 70
     0
280
     1
281
     0
  0
BLOCK_RECORD
  5
1A4
330
1
100
AcDbSymbolTableRecord
100
AcDbBlockTableRecord
  2
*D8
340
0
 70
     0
280
     1
281
     0
  0
BLOCK_RECORD
  5
1BB
330
1
100
AcDbSymbolTableRecord
100
AcDbBlockTableRecord
  2
*D9
340
0
 70
     0
280
     1
281
     0
  0
BLOCK_RECORD
  5
1D7
330
1
100
AcDbSymbolTableRecord
100
AcDbBlockTableRecord
  2
*D10
340
0
 70
     0
280
     1
281
     0
  0
BLOCK_RECORD
  5
1E2
330
1
100
AcDbSymbolTableRecord
100
AcDbBlockTableRecord
  2
A4 Senkrecht neutral_nNn010
340
0
102
{BLKREFS
331
1F7
102
}
 70
     0
280
     1
281
     0
  0
BLOCK_RECORD
  5
1F8
330
1
100
AcDbSymbolTableRecord
100
AcDbBlockTableRecord
  2
*D12
340
0
 70
     0
280
     1
281
     0
  0
BLOCK_RECORD
  5
202
330
1
100
AcDbSymbolTableRecord
100
AcDbBlockTableRecord
  2
*D13
340
0
 70
     0
280
     1
281
     0
  0
BLOCK_RECORD
  5
20C
330
1
100
AcDbSymbolTableRecord
100
AcDbBlockTableRecord
  2
*D14
340
0
 70
     0
280
     1
281
     0
  0
BLOCK_RECORD
  5
216
330
1
100
AcDbSymbolTableRecord
100
AcDbBlockTableRecord
  2
*D15
340
0
 70
     0
280
     1
281
     0
  0
BLOCK_RECORD
  5
220
330
1
100
AcDbSymbolTableRecord
100
AcDbBlockTableRecord
  2
*D16
340
0
 70
     0
280
     1
281
     0
  0
ENDTAB
  0
ENDSEC
  0
SECTION
  2
BLOCKS
  0
BLOCK
  5
20
330
1F
100
AcDbEntity
  8
0
100
AcDbBlockBegin
  2
*Model_Space
 70
     0
 10
0.0
 20
0.0
 30
0.0
  3
*Model_Space
  1

  0
ENDBLK
  5
21
330
1F
100
AcDbEntity
  8
0
100
AcDbBlockEnd
  0
BLOCK
  5
1C
330
1B
100
AcDbEntity
 67
     1
  8
0
100
AcDbBlockBegin
  2
*Paper_Space
 70
     0
 10
0.0
 20
0.0
 30
0.0
  3
*Paper_Space
  1

  0
ENDBLK
  5
1D
330
1B
100
AcDbEntity
 67
     1
  8
0
100
AcDbBlockEnd
  0
BLOCK
  5
24
330
23
100
AcDbEntity
  8
0
100
AcDbBlockBegin
  2
*Paper_Space0
 70
     0
 10
0.0
 20
0.0
 30
0.0
  3
*Paper_Space0
  1

  0
ENDBLK
  5
25
330
23
100
AcDbEntity
  8
0
100
AcDbBlockEnd
  0
BLOCK
  5
79
330
78
100
AcDbEntity
  8
0
100
AcDbBlockBegin
  2
VERSCHLU_nNn00
 70
     0
 10
0.0
 20
0.0
 30
0.0
  3
VERSCHLU_nNn00
  1

  0
LINE
  5
7B
330
78
100
AcDbEntity
  8
Detail
  6
DASHDOT
 62
     7
370
    25
100
AcDbLine
 10
91.845932006836
 20
51.385406295982
 30
0.0
 11
91.845932006836
 21
188.228790283203
 31
0.0
  0
LINE
  5
7C
330
78
100
AcDbEntity
  8
Detail
  6
DASHDOT
 62
     7
370
    25
100
AcDbLine
 10
91.845932006836
 20
-79.792343139648
 30
0.0
 11
91.845932006836
 21
44.942961666337
 31
0.0
  0
ENDBLK
  5
7A
330
78
100
AcDbEntity
  8
0
100
AcDbBlockEnd
  0
BLOCK
  5
7F
330
7E
100
AcDbEntity
  8
0
100
AcDbBlockBegin
  2
VERSCHLU_nNn01
 70
     0
 10
0.0
 20
0.0
 30
0.0
  3
VERSCHLU_nNn01
  1

  0
LINE
  5
81
330
7E
100
AcDbEntity
  8
Detail
  6
AUSGEZOGEN
 62
     7
370
    25
100
AcDbLine
 10
21.745908737183
 20
188.228790283203
 30
0.0
 11
161.745895385742
 21
188.228790283203
 31
0.0
  0
LINE
  5
82
330
7E
100
AcDbEntity
  8
Detail
  6
AUSGEZOGEN
 62
     7
370
    25
100
AcDbLine
 10
148.845932006836
 20
163.228790283203
 30
0.0
 11
161.745895385742
 21
163.228790283203
 31
0.0
  0
LINE
  5
83
330
7E
100
AcDbEntity
  8
Detail
  6
AUSGEZOGEN
 62
     7
370
    25
100
AcDbLine
 10
21.745908737183
 20
163.228790283203
 30
0.0
 11
34.845932006836
 21
163.228790283203
 31
0.0
  0
LINE
  5
84
330
7E
100
AcDbEntity
  8
Detail
  6
AUSGEZOGEN
 62
     7
370
    25
100
AcDbLine
 10
21.745908737183
 20
163.228790283203
 30
0.0
 11
21.745908737183
 21
188.228790283203
 31
0.0
  0
LINE
  5
85
330
7E
100
AcDbEntity
  8
Detail
  6
AUSGEZOGEN
 62
     7
370
    25
100
AcDbLine
 10
161.745895385742
 20
163.228790283203
 30
0.0
 11
161.745895385742
 21
188.228790283203
 31
0.0
  0
LINE
  5
86
330
7E
100
AcDbEntity
  8
Detail
  6
AUSGEZOGEN
 62
     7
370
    25
100
AcDbLine
 10
29.245908737183
 20
170.228790283203
 30
0.0
 11
29.245908737183
 21
188.228790283203
 31
0.0
  0
LINE
  5
87
330
7E
100
AcDbEntity
  8
Detail
  6
AUSGEZOGEN
 62
     7
370
    25
100
AcDbLine
 10
29.245908737183
 20
170.228790283203
 30
0.0
 11
154.445955276489
 21
170.228790283203
 31
0.0
  0
ENDBLK
  5
80
330
7E
100
AcDbEntity
  8
0
100
AcDbBlockEnd
  0
BLOCK
  5
8A
330
89
100
AcDbEntity
  8
0
100
AcDbBlockBegin
  2
Verschlussteil_nNn02
 70
     0
 10
0.0
 20
0.0
 30
0.0
  3
Verschlussteil_nNn02
  1

  0
LINE
  5
8C
330
89
100
AcDbEntity
  8
Schraffur
  6
AUSGEZOGEN
 62
     7
370
    25
100
AcDbLine
 10
136.345932006836
 20
272.0
 30
0.0
 11
154.195932006836
 21
272.0
 31
0.0
  0
LINE
  5
8D
330
89
100
AcDbEntity
  8
Schraffur
  6
AUSGEZOGEN
 62
     7
370
    25
100
AcDbLine
 10
29.495932006836
 20
272.0
 30
0.0
 11
47.345932006836
 21
272.0
 31
0.0
  0
LINE
  5
8E
330
89
100
AcDbEntity
  8
Schraffur
  6
AUSGEZOGEN
 62
     7
370
    25
100
AcDbLine
 10
136.345932006836
 20
289.3
 30
0.0
 11
154.195932006836
 21
289.3
 31
0.0
  0
LINE
  5
8F
330
89
100
AcDbEntity
  8
Schraffur
  6
AUSGEZOGEN
 62
     7
370
    25
100
AcDbLine
 10
29.495932006836
 20
289.3
 30
0.0
 11
47.345932006836
 21
289.3
 31
0.0
  0
LINE
  5
90
330
89
100
AcDbEntity
  8
Schraffur
  6
AUSGEZOGEN
 62
     7
370
    25
100
AcDbLine
 10
29.495932006836
 20
285.8
 30
0.0
 11
38.920932006836
 21
285.8
 31
0.0
  0
LINE
  5
91
330
89
100
AcDbEntity
  8
Schraffur
  6
AUSGEZOGEN
 62
     7
370
    25
100
AcDbLine
 10
29.495932006836
 20
275.5
 30
0.0
 11
38.920932006836
 21
275.5
 31
0.0
  0
LINE
  5
92
330
89
100
AcDbEntity
  8
Schraffur
  6
DASHDOT
 62
     7
370
    25
100
AcDbLine
 10
91.845932006836
 20
384.317054470235
 30
0.0
 11
91.845932006836
 21
272.0
 31
0.0
  0
LINE
  5
93
330
89
100
AcDbEntity
  8
Schraffur
  6
DASHDOT
 62
     7
370
    25
100
AcDbLine
 10
91.845932006836
 20
489.3
 30
0.0
 11
91.845932006836
 21
390.311165299997
 31
0.0
  0
LINE
  5
94
330
89
100
AcDbEntity
  8
Schraffur
  6
AUSGEZOGEN
 62
     7
370
    25
100
AcDbLine
 10
47.345932006836
 20
289.3
 30
0.0
 11
47.345932006836
 21
272.0
 31
0.0
  0
LINE
  5
95
330
89
100
AcDbEntity
  8
Schraffur
  6
AUSGEZOGEN
 62
     7
370
    25
100
AcDbLine
 10
38.920932006836
 20
285.8
 30
0.0
 11
38.920932006836
 21
275.5
 31
0.0
  0
LINE
  5
96
330
89
100
AcDbEntity
  8
Schraffur
  6
AUSGEZOGEN
 62
     7
370
    25
100
AcDbLine
 10
29.495932006836
 20
275.5
 30
0.0
 11
29.495932006836
 21
272.0
 31
0.0
  0
LINE
  5
97
330
89
100
AcDbEntity
  8
Schraffur
  6
AUSGEZOGEN
 62
     7
370
    25
100
AcDbLine
 10
29.495932006836
 20
289.3
 30
0.0
 11
29.495932006836
 21
285.8
 31
0.0
  0
LINE
  5
98
330
89
100
AcDbEntity
  8
Schraffur
  6
AUSGEZOGEN
 62
     7
370
    25
100
AcDbLine
 10
154.195932006836
 20
285.8
 30
0.0
 11
144.770932006836
 21
285.8
 31
0.0
  0
LINE
  5
99
330
89
100
AcDbEntity
  8
Schraffur
  6
AUSGEZOGEN
 62
     7
370
    25
100
AcDbLine
 10
154.195932006836
 20
275.5
 30
0.0
 11
144.770932006836
 21
275.5
 31
0.0
  0
LINE
  5
9A
330
89
100
AcDbEntity
  8
Schraffur
  6
AUSGEZOGEN
 62
     7
370
    25
100
AcDbLine
 10
136.345932006836
 20
289.3
 30
0.0
 11
136.345932006836
 21
272.0
 31
0.0
  0
LINE
  5
9B
330
89
100
AcDbEntity
  8
Schraffur
  6
AUSGEZOGEN
 62
     7
370
    25
100
AcDbLine
 10
144.770932006836
 20
285.8
 30
0.0
 11
144.770932006836
 21
275.5
 31
0.0
  0
LINE
  5
9C
330
89
100
AcDbEntity
  8
Schraffur
  6
AUSGEZOGEN
 62
     7
370
    25
100
AcDbLine
 10
154.195932006836
 20
275.5
 30
0.0
 11
154.195932006836
 21
272.0
 31
0.0
  0
LINE
  5
9D
330
89
100
AcDbEntity
  8
Schraffur
  6
AUSGEZOGEN
 62
     7
370
    25
100
AcDbLine
 10
154.195932006836
 20
289.3
 30
0.0
 11
154.195932006836
 21
285.8
 31
0.0
  0
LINE
  5
9E
330
89
100
AcDbEntity
  8
Schraffur
  6
AUSGEZOGEN
 62
     7
370
    25
100
AcDbLine
 10
47.345932006836
 20
272.0
 30
0.0
 11
136.345932006836
 21
272.0
 31
0.0
  0
ENDBLK
  5
8B
330
89
100
AcDbEntity
  8
0
100
AcDbBlockEnd
  0
BLOCK
  5
C2
330
C1
100
AcDbEntity
  8
0
100
AcDbBlockBegin
  2
*D4
 70
     1
 10
0.0
 20
0.0
 30
0.0
  3
*D4
  1

  0
HATCH
  5
C4
330
C1
100
AcDbEntity
  8
Vermassung
  6
AUSGEZOGEN
 62
     7
370
    25
100
AcDbHatch
 10
0.0
 20
0.0
 30
0.0
210
0.0
220
0.0
230
1.0
  2
SOLID
 70
     1
 71
     0
 91
        1
 92
        2
 72
     0
 73
     1
 93
        3
 10
202.0
 20
163.228790283203
 10
203.2
 20
169.228790283203
 10
200.8
 20
169.228790283203
 97
        0
 75
     0
 76
     1
 98
        0
  0
HATCH
  5
C5
330
C1
100
AcDbEntity
  8
Vermassung
  6
AUSGEZOGEN
 62
     7
370
    25
100
AcDbHatch
 10
0.0
 20
0.0
 30
0.0
210
0.0
220
0.0
230
1.0
  2
SOLID
 70
     1
 71
     0
 91
        1
 92
        2
 72
     0
 73
     1
 93
        3
 10
202.0
 20
188.228790283203
 10
200.8
 20
182.228790283203
 10
203.2
 20
182.228790283203
 97
        0
 75
     0
 76
     1
 98
        0
  0
LINE
  5
C6
330
C1
100
AcDbEntity
  8
Vermassung
  6
AUSGEZOGEN
 62
     7
370
    25
100
AcDbLine
 10
202.0
 20
182.228790283203
 30
0.0
 11
202.0
 21
169.228790283203
 31
0.0
  0
LINE
  5
C7
330
C1
100
AcDbEntity
  8
Vermassung
  6
AUSGEZOGEN
 62
     7
370
    18
100
AcDbLine
 10
161.745895385742
 20
188.228790283203
 30
0.0
 11
206.285714285714
 21
188.228790283203
 31
0.0
  0
LINE
  5
C8
330
C1
100
AcDbEntity
  8
Vermassung
  6
AUSGEZOGEN
 62
     7
370
    18
100
AcDbLine
 10
161.745895385742
 20
163.228790283203
 30
0.0
 11
206.285714285714
 21
163.228790283203
 31
0.0
  0
TEXT
  5
C9
330
C1
100
AcDbEntity
  8
Vermassung
  6
AUSGEZOGEN
 62
     7
370
    18
100
AcDbText
 10
199.2
 20
171.06212369442
 30
0.0
 40
6.0
  1
25
 50
90.0
 41
1.002290934017
  7
Arial
 72
     5
 11
199.2
 21
180.395456871986
 31
0.0
100
AcDbText
  0
ENDBLK
  5
C3
330
C1
100
AcDbEntity
  8
0
100
AcDbBlockEnd
  0
BLOCK
  5
CE
330
CD
100
AcDbEntity
  8
0
100
AcDbBlockBegin
  2
Lochrost 109 rund_nNn04
 70
     0
 10
0.0
 20
0.0
 30
0.0
  3
Lochrost 109 rund_nNn04
  1

  0
CIRCLE
  5
D0
330
CD
100
AcDbEntity
  8
Vermassung
  6
AUSGEZOGEN
 62
     7
370
    25
100
AcDbCircle
 10
331.0
 20
34.010351822022
 30
0.0
 40
61.99999809265137
  0
CIRCLE
  5
D1
330
CD
100
AcDbEntity
  8
Vermassung
  6
AUSGEZOGEN
 62
     7
370
    25
100
AcDbCircle
 10
331.0
 20
27.010344192627
 30
0.0
 40
4.600000083446503
  0
CIRCLE
  5
D2
330
CD
100
AcDbEntity
  8
Vermassung
  6
AUSGEZOGEN
 62
     7
370
    25
100
AcDbCircle
 10
331.0
 20
13.010328933838
 30
0.0
 40
4.600000083446503
  0
CIRCLE
  5
D3
330
CD
100
AcDbEntity
  8
Vermassung
  6
AUSGEZOGEN
 62
     7
370
    25
100
AcDbCircle
 10
331.0
 20
-0.989686324951
 30
0.0
 40
4.600000083446503
  0
CIRCLE
  5
D4
330
CD
100
AcDbEntity
  8
Vermassung
  6
AUSGEZOGEN
 62
     7
370
    25
100
AcDbCircle
 10
331.0
 20
41.010359451416
 30
0.0
 40
4.600000083446503
  0
CIRCLE
  5
D5
330
CD
100
AcDbEntity
  8
Vermassung
  6
AUSGEZOGEN
 62
     7
370
    25
100
AcDbCircle
 10
331.0
 20
55.010374710205
 30
0.0
 40
4.600000083446503
  0
CIRCLE
  5
D6
330
CD
100
AcDbEntity
  8
Vermassung
  6
AUSGEZOGEN
 62
     7
370
    25
100
AcDbCircle
 10
331.0
 20
69.010389968994
 30
0.0
 40
4.600000083446503
  0
CIRCLE
  5
D7
330
CD
100
AcDbEntity
  8
Vermassung
  6
AUSGEZOGEN
 62
     7
370
    25
100
AcDbCircle
 10
345.000015258789
 20
76.010397598389
 30
0.0
 40
4.600000083446503
  0
CIRCLE
  5
D8
330
CD
100
AcDbEntity
  8
Vermassung
  6
AUSGEZOGEN
 62
     7
370
    25
100
AcDbCircle
 10
345.000015258789
 20
62.0103823396
 30
0.0
 40
4.600000083446503
  0
CIRCLE
  5
D9
330
CD
100
AcDbEntity
  8
Vermassung
  6
AUSGEZOGEN
 62
     7
370
    25
100
AcDbCircle
 10
345.000015258789
 20
48.010367080811
 30
0.0
 40
4.600000083446503
  0
CIRCLE
  5
DA
330
CD
100
AcDbEntity
  8
Vermassung
  6
AUSGEZOGEN
 62
     7
370
    25
100
AcDbCircle
 10
345.000015258789
 20
34.010351822022
 30
0.0
 40
4.600000083446503
  0
CIRCLE
  5
DB
330
CD
100
AcDbEntity
  8
Vermassung
  6
AUSGEZOGEN
 62
     7
370
    25
100
AcDbCircle
 10
345.000015258789
 20
20.010336563233
 30
0.0
 40
4.600000083446503
  0
CIRCLE
  5
DC
330
CD
100
AcDbEntity
  8
Vermassung
  6
AUSGEZOGEN
 62
     7
370
    25
100
AcDbCircle
 10
345.000015258789
 20
6.010321304444
 30
0.0
 40
4.600000083446503
  0
CIRCLE
  5
DD
330
CD
100
AcDbEntity
  8
Vermassung
  6
AUSGEZOGEN
 62
     7
370
    25
100
AcDbCircle
 10
345.000015258789
 20
-7.989693954345
 30
0.0
 40
4.600000083446503
  0
CIRCLE
  5
DE
330
CD
100
AcDbEntity
  8
Vermassung
  6
AUSGEZOGEN
 62
     7
370
    25
100
AcDbCircle
 10
359.000030517578
 20
-0.989686324951
 30
0.0
 40
4.600000083446503
  0
CIRCLE
  5
DF
330
CD
100
AcDbEntity
  8
Vermassung
  6
AUSGEZOGEN
 62
     7
370
    25
100
AcDbCircle
 10
359.000030517578
 20
13.010328933838
 30
0.0
 40
4.600000083446503
  0
CIRCLE
  5
E0
330
CD
100
AcDbEntity
  8
Vermassung
  6
AUSGEZOGEN
 62
     7
370
    25
100
AcDbCircle
 10
359.000030517578
 20
27.010344192627
 30
0.0
 40
4.600000083446503
  0
CIRCLE
  5
E1
330
CD
100
AcDbEntity
  8
Vermassung
  6
AUSGEZOGEN
 62
     7
370
    25
100
AcDbCircle
 10
359.000030517578
 20
41.010359451416
 30
0.0
 40
4.600000083446503
  0
CIRCLE
  5
E2
330
CD
100
AcDbEntity
  8
Vermassung
  6
AUSGEZOGEN
 62
     7
370
    25
100
AcDbCircle
 10
359.000030517578
 20
55.010374710205
 30
0.0
 40
4.600000083446503
  0
CIRCLE
  5
E3
330
CD
100
AcDbEntity
  8
Vermassung
  6
AUSGEZOGEN
 62
     7
370
    25
100
AcDbCircle
 10
359.000030517578
 20
69.010389968994
 30
0.0
 40
4.600000083446503
  0
CIRCLE
  5
E4
330
CD
100
AcDbEntity
  8
Vermassung
  6
AUSGEZOGEN
 62
     7
370
    25
100
AcDbCircle
 10
373.000045776367
 20
34.010351822022
 30
0.0
 40
4.600000083446503
  0
CIRCLE
  5
E5
330
CD
100
AcDbEntity
  8
Vermassung
  6
AUSGEZOGEN
 62
     7
370
    25
100
AcDbCircle
 10
373.000045776367
 20
48.010367080811
 30
0.0
 40
4.600000083446503
  0
CIRCLE
  5
E6
330
CD
100
AcDbEntity
  8
Vermassung
  6
AUSGEZOGEN
 62
     7
370
    25
100
AcDbCircle
 10
373.000045776367
 20
20.010336563233
 30
0.0
 40
4.600000083446503
  0
CIRCLE
  5
E7
330
CD
100
AcDbEntity
  8
Vermassung
  6
AUSGEZOGEN
 62
     7
370
    25
100
AcDbCircle
 10
316.999984741211
 20
34.010351822022
 30
0.0
 40
4.600000083446503
  0
CIRCLE
  5
E8
330
CD
100
AcDbEntity
  8
Vermassung
  6
AUSGEZOGEN
 62
     7
370
    25
100
AcDbCircle
 10
316.999984741211
 20
48.010367080811
 30
0.0
 40
4.600000083446503
  0
CIRCLE
  5
E9
330
CD
100
AcDbEntity
  8
Vermassung
  6
AUSGEZOGEN
 62
     7
370
    25
100
AcDbCircle
 10
316.999984741211
 20
62.0103823396
 30
0.0
 40
4.600000083446503
  0
CIRCLE
  5
EA
330
CD
100
AcDbEntity
  8
Vermassung
  6
AUSGEZOGEN
 62
     7
370
    25
100
AcDbCircle
 10
316.999984741211
 20
76.010397598389
 30
0.0
 40
4.600000083446503
  0
CIRCLE
  5
EB
330
CD
100
AcDbEntity
  8
Vermassung
  6
AUSGEZOGEN
 62
     7
370
    25
100
AcDbCircle
 10
316.999984741211
 20
20.010336563233
 30
0.0
 40
4.600000083446503
  0
CIRCLE
  5
EC
330
CD
100
AcDbEntity
  8
Vermassung
  6
AUSGEZOGEN
 62
     7
370
    25
100
AcDbCircle
 10
316.999984741211
 20
6.010321304444
 30
0.0
 40
4.600000083446503
  0
CIRCLE
  5
ED
330
CD
100
AcDbEntity
  8
Vermassung
  6
AUSGEZOGEN
 62
     7
370
    25
100
AcDbCircle
 10
316.999984741211
 20
-7.989693954345
 30
0.0
 40
4.600000083446503
  0
CIRCLE
  5
EE
330
CD
100
AcDbEntity
  8
Vermassung
  6
AUSGEZOGEN
 62
     7
370
    25
100
AcDbCircle
 10
302.999969482422
 20
-0.989686324951
 30
0.0
 40
4.600000083446503
  0
CIRCLE
  5
EF
330
CD
100
AcDbEntity
  8
Vermassung
  6
AUSGEZOGEN
 62
     7
370
    25
100
AcDbCircle
 10
302.999969482422
 20
13.010328933838
 30
0.0
 40
4.600000083446503
  0
CIRCLE
  5
F0
330
CD
100
AcDbEntity
  8
Vermassung
  6
AUSGEZOGEN
 62
     7
370
    25
100
AcDbCircle
 10
302.999969482422
 20
27.010344192627
 30
0.0
 40
4.600000083446503
  0
CIRCLE
  5
F1
330
CD
100
AcDbEntity
  8
Vermassung
  6
AUSGEZOGEN
 62
     7
370
    25
100
AcDbCircle
 10
302.999969482422
 20
41.010359451416
 30
0.0
 40
4.600000083446503
  0
CIRCLE
  5
F2
330
CD
100
AcDbEntity
  8
Vermassung
  6
AUSGEZOGEN
 62
     7
370
    25
100
AcDbCircle
 10
302.999969482422
 20
55.010374710205
 30
0.0
 40
4.600000083446503
  0
CIRCLE
  5
F3
330
CD
100
AcDbEntity
  8
Vermassung
  6
AUSGEZOGEN
 62
     7
370
    25
100
AcDbCircle
 10
302.999969482422
 20
69.010389968994
 30
0.0
 40
4.600000083446503
  0
CIRCLE
  5
F4
330
CD
100
AcDbEntity
  8
Vermassung
  6
AUSGEZOGEN
 62
     7
370
    25
100
AcDbCircle
 10
288.999954223633
 20
34.010351822022
 30
0.0
 40
4.600000083446503
  0
CIRCLE
  5
F5
330
CD
100
AcDbEntity
  8
Vermassung
  6
AUSGEZOGEN
 62
     7
370
    25
100
AcDbCircle
 10
288.999954223633
 20
48.010367080811
 30
0.0
 40
4.600000083446503
  0
CIRCLE
  5
F6
330
CD
100
AcDbEntity
  8
Vermassung
  6
AUSGEZOGEN
 62
     7
370
    25
100
AcDbCircle
 10
288.999954223633
 20
20.010336563233
 30
0.0
 40
4.600000083446503
  0
TEXT
  5
F7
330
CD
100
AcDbEntity
  8
Vermassung
  6
AUSGEZOGEN
 62
     7
370
    25
100
AcDbText
 10
309.269653283595
 20
84.155027881506
 30
0.0
 40
2.800000011921
  1
Scheco Aadorf
 50
0.000002561321
 41
1.403682787046
  7
Arial
 72
     5
 11
345.251657999915
 21
84.155029490027
 31
0.0
100
AcDbText
  0
ENDBLK
  5
CF
330
CD
100
AcDbEntity
  8
0
100
AcDbBlockEnd
  0
BLOCK
  5
FA
330
F9
100
AcDbEntity
  8
0
100
AcDbBlockBegin
  2
Verschluss standrohr_nNn05
 70
     0
 10
0.0
 20
0.0
 30
0.0
  3
Verschluss standrohr_nNn05
  1

  0
LINE
  5
FC
330
F9
100
AcDbEntity
  8
Vermassung
  6
DASHDOT
 62
     7
370
    25
100
AcDbLine
 10
319.0
 20
347.999525659549
 30
0.0
 11
319.0
 21
376.361213565864
 31
0.0
  0
TEXT
  5
FD
330
F9
100
AcDbEntity
  8
Text
  6
AUSGEZOGEN
 62
     7
370
    25
100
AcDbText
 10
388.198165893555
 20
362.294978070675
 30
0.0
 40
5.0
  1
Dichtung aus Viton
 41
1.156289923334
  7
Arial
 72
     5
 11
455.927848152832
 21
362.294978070675
 31
0.0
100
AcDbText
  0
TEXT
  5
FE
330
F9
100
AcDbEntity
  8
Text
  6
AUSGEZOGEN
 62
     7
370
    25
100
AcDbText
 10
388.198165893555
 20
354.294978070675
 30
0.0
 40
5.0
  1
(säurebeständig)
 41
1.158178562933
  7
Arial
 72
     5
 11
448.846186341524
 21
354.294978070675
 31
0.0
100
AcDbText
  0
LINE
  5
FF
330
F9
100
AcDbEntity
  8
Vermassung
  6
AUSGEZOGEN
 62
     7
370
    25
100
AcDbLine
 10
256.935578916162
 20
376.361213565864
 30
0.0
 11
381.435578916162
 21
376.361213565864
 31
0.0
  0
LINE
  5
100
330
F9
100
AcDbEntity
  8
Vermassung
  6
AUSGEZOGEN
 62
     7
370
    25
100
AcDbLine
 10
267.185578916162
 20
366.361213565864
 30
0.0
 11
371.185578916162
 21
366.361213565864
 31
0.0
  0
LINE
  5
101
330
F9
100
AcDbEntity
  8
Vermassung
  6
AUSGEZOGEN
 62
     7
370
    25
100
AcDbLine
 10
371.185578916162
 20
373.861213565864
 30
0.0
 11
381.435578916162
 21
373.861213565864
 31
0.0
  0
LINE
  5
102
330
F9
100
AcDbEntity
  8
Vermassung
  6
AUSGEZOGEN
 62
     7
370
    25
100
AcDbLine
 10
256.935578916162
 20
373.861213565864
 30
0.0
 11
267.185578916162
 21
373.861213565864
 31
0.0
  0
LINE
  5
103
330
F9
100
AcDbEntity
  8
Vermassung
  6
AUSGEZOGEN
 62
     7
370
    25
100
AcDbLine
 10
312.535577390283
 20
368.361213565864
 30
0.0
 11
312.535577390283
 21
375.861213565864
 31
0.0
  0
LINE
  5
104
330
F9
100
AcDbEntity
  8
Vermassung
  6
AUSGEZOGEN
 62
     7
370
    25
100
AcDbLine
 10
325.835580442041
 20
368.361213565864
 30
0.0
 11
325.835580442041
 21
375.861213565864
 31
0.0
  0
LINE
  5
105
330
F9
100
AcDbEntity
  8
Vermassung
  6
AUSGEZOGEN
 62
     7
370
    25
100
AcDbLine
 10
323.435578916162
 20
368.361213565864
 30
0.0
 11
325.835580442041
 21
368.361213565864
 31
0.0
  0
LINE
  5
106
330
F9
100
AcDbEntity
  8
Vermassung
  6
AUSGEZOGEN
 62
     7
370
    25
100
AcDbLine
 10
312.535577390283
 20
368.361213565864
 30
0.0
 11
314.935578916162
 21
368.361213565864
 31
0.0
  0
LINE
  5
107
330
F9
100
AcDbEntity
  8
Vermassung
  6
AUSGEZOGEN
 62
     7
370
    25
100
AcDbLine
 10
312.535577390283
 20
375.861213565864
 30
0.0
 11
312.035577390283
 21
376.361213565864
 31
0.0
  0
LINE
  5
108
330
F9
100
AcDbEntity
  8
Vermassung
  6
AUSGEZOGEN
 62
     7
370
    25
100
AcDbLine
 10
325.835580442041
 20
375.861213565864
 30
0.0
 11
326.335580442041
 21
376.361213565864
 31
0.0
  0
LINE
  5
109
330
F9
100
AcDbEntity
  8
Vermassung
  6
AUSGEZOGEN
 62
     7
370
    25
100
AcDbLine
 10
267.185578916162
 20
366.361213565864
 30
0.0
 11
267.185578916162
 21
373.861213565864
 31
0.0
  0
LINE
  5
10A
330
F9
100
AcDbEntity
  8
Vermassung
  6
AUSGEZOGEN
 62
     7
370
    25
100
AcDbLine
 10
371.185578916162
 20
366.361213565864
 30
0.0
 11
371.185578916162
 21
373.861213565864
 31
0.0
  0
LINE
  5
10B
330
F9
100
AcDbEntity
  8
Vermassung
  6
AUSGEZOGEN
 62
     7
370
    25
100
AcDbLine
 10
256.935578916162
 20
373.861213565864
 30
0.0
 11
256.935578916162
 21
376.361213565864
 31
0.0
  0
LINE
  5
10C
330
F9
100
AcDbEntity
  8
Vermassung
  6
AUSGEZOGEN
 62
     7
370
    25
100
AcDbLine
 10
381.435578916162
 20
373.861213565864
 30
0.0
 11
381.435578916162
 21
376.361213565864
 31
0.0
  0
LINE
  5
10D
330
F9
100
AcDbEntity
  8
Vermassung
  6
AUSGEZOGEN
 62
     7
370
    25
100
AcDbLine
 10
314.935578916162
 20
366.361213565864
 30
0.0
 11
314.935578916162
 21
368.361213565864
 31
0.0
  0
LINE
  5
10E
330
F9
100
AcDbEntity
  8
Vermassung
  6
AUSGEZOGEN
 62
     7
370
    25
100
AcDbLine
 10
323.435578916162
 20
366.361213565864
 30
0.0
 11
323.435578916162
 21
368.361213565864
 31
0.0
  0
LINE
  5
10F
330
F9
100
AcDbEntity
  8
Vermassung
  6
AUSGEZOGEN
 62
     7
370
    25
100
AcDbLine
 10
261.52010345459
 20
354.692951168028
 30
0.0
 11
376.520111083984
 21
354.692951168028
 31
0.0
  0
LINE
  5
110
330
F9
100
AcDbEntity
  8
Vermassung
  6
AUSGEZOGEN
 62
     7
370
    25
100
AcDbLine
 10
261.52010345459
 20
364.692951168028
 30
0.0
 11
376.520111083984
 21
364.692951168028
 31
0.0
  0
CIRCLE
  5
111
330
F9
100
AcDbEntity
  8
Vermassung
  6
AUSGEZOGEN
 62
     7
370
    25
100
AcDbCircle
 10
261.52010345459
 20
359.692951168028
 30
0.0
 40
5.0
  0
CIRCLE
  5
112
330
F9
100
AcDbEntity
  8
Vermassung
  6
AUSGEZOGEN
 62
     7
370
    25
100
AcDbCircle
 10
376.520111083984
 20
359.692951168028
 30
0.0
 40
5.0
  0
LINE
  5
113
330
F9
100
AcDbEntity
  8
Vermassung
  6
AUSGEZOGEN
 62
     7
370
    25
100
AcDbLine
 10
257.085065841675
 20
352.99951040076
 30
0.0
 11
381.085067749023
 21
352.99951040076
 31
0.0
  0
LINE
  5
114
330
F9
100
AcDbEntity
  8
Vermassung
  6
AUSGEZOGEN
 62
     7
370
    25
100
AcDbLine
 10
257.085065841675
 20
347.999525659549
 30
0.0
 11
381.085067749023
 21
347.999525659549
 31
0.0
  0
LINE
  5
115
330
F9
100
AcDbEntity
  8
Vermassung
  6
AUSGEZOGEN
 62
     7
370
    25
100
AcDbLine
 10
257.085065841675
 20
347.999525659549
 30
0.0
 11
257.085065841675
 21
352.99951040076
 31
0.0
  0
LINE
  5
116
330
F9
100
AcDbEntity
  8
Vermassung
  6
AUSGEZOGEN
 62
     7
370
    25
100
AcDbLine
 10
381.085067749023
 20
347.999525659549
 30
0.0
 11
381.085067749023
 21
352.99951040076
 31
0.0
  0
LINE
  5
117
330
F9
100
AcDbEntity
  8
Vermassung
  6
AUSGEZOGEN
 62
     7
370
    25
100
AcDbLine
 10
315.094818115234
 20
347.999525659549
 30
0.0
 11
316.085060119629
 21
348.602720849979
 31
0.0
  0
LINE
  5
118
330
F9
100
AcDbEntity
  8
Vermassung
  6
AUSGEZOGEN
 62
     7
370
    25
100
AcDbLine
 10
316.085060119629
 20
348.602720849979
 30
0.0
 11
315.085060119629
 21
349.003691308963
 31
0.0
  0
LINE
  5
119
330
F9
100
AcDbEntity
  8
Vermassung
  6
AUSGEZOGEN
 62
     7
370
    25
100
AcDbLine
 10
315.085060119629
 20
349.003691308963
 30
0.0
 11
316.085060119629
 21
349.607847803104
 31
0.0
  0
LINE
  5
11A
330
F9
100
AcDbEntity
  8
Vermassung
  6
AUSGEZOGEN
 62
     7
370
    25
100
AcDbLine
 10
316.085060119629
 20
349.607847803104
 30
0.0
 11
315.085060119629
 21
350.008818262088
 31
0.0
  0
LINE
  5
11B
330
F9
100
AcDbEntity
  8
Vermassung
  6
AUSGEZOGEN
 62
     7
370
    25
100
AcDbLine
 10
315.085060119629
 20
350.008818262088
 30
0.0
 11
316.085060119629
 21
350.613005273807
 31
0.0
  0
LINE
  5
11C
330
F9
100
AcDbEntity
  8
Vermassung
  6
AUSGEZOGEN
 62
     7
370
    25
100
AcDbLine
 10
316.085060119629
 20
350.613005273807
 30
0.0
 11
315.085060119629
 21
351.013975732791
 31
0.0
  0
LINE
  5
11D
330
F9
100
AcDbEntity
  8
Vermassung
  6
AUSGEZOGEN
 62
     7
370
    25
100
AcDbLine
 10
315.085060119629
 20
351.013975732791
 30
0.0
 11
316.085060119629
 21
351.61816274451
 31
0.0
  0
LINE
  5
11E
330
F9
100
AcDbEntity
  8
Vermassung
  6
AUSGEZOGEN
 62
     7
370
    25
100
AcDbLine
 10
316.085060119629
 20
351.61816274451
 30
0.0
 11
315.085060119629
 21
352.019133203495
 31
0.0
  0
LINE
  5
11F
330
F9
100
AcDbEntity
  8
Vermassung
  6
AUSGEZOGEN
 62
     7
370
    25
100
AcDbLine
 10
315.085060119629
 20
352.019133203495
 30
0.0
 11
316.085060119629
 21
352.623320215213
 31
0.0
  0
LINE
  5
120
330
F9
100
AcDbEntity
  8
Vermassung
  6
AUSGEZOGEN
 62
     7
370
    25
100
AcDbLine
 10
316.085060119629
 20
352.623320215213
 30
0.0
 11
315.085060119629
 21
352.99951040076
 31
0.0
  0
LINE
  5
121
330
F9
100
AcDbEntity
  8
Vermassung
  6
AUSGEZOGEN
 62
     7
370
    25
100
AcDbLine
 10
322.573173522949
 20
347.999525659549
 30
0.0
 11
323.085060119629
 21
348.308806055057
 31
0.0
  0
LINE
  5
122
330
F9
100
AcDbEntity
  8
Vermassung
  6
AUSGEZOGEN
 62
     7
370
    25
100
AcDbLine
 10
323.085060119629
 20
348.308806055057
 30
0.0
 11
322.085060119629
 21
348.709776514041
 31
0.0
  0
LINE
  5
123
330
F9
100
AcDbEntity
  8
Vermassung
  6
AUSGEZOGEN
 62
     7
370
    25
100
AcDbLine
 10
322.085060119629
 20
348.709776514041
 30
0.0
 11
323.085060119629
 21
349.313933008182
 31
0.0
  0
LINE
  5
124
330
F9
100
AcDbEntity
  8
Vermassung
  6
AUSGEZOGEN
 62
     7
370
    25
100
AcDbLine
 10
323.085060119629
 20
349.313933008182
 30
0.0
 11
322.085060119629
 21
349.714903467166
 31
0.0
  0
LINE
  5
125
330
F9
100
AcDbEntity
  8
Vermassung
  6
AUSGEZOGEN
 62
     7
370
    25
100
AcDbLine
 10
322.085060119629
 20
349.714903467166
 30
0.0
 11
323.085060119629
 21
350.319090478885
 31
0.0
  0
LINE
  5
126
330
F9
100
AcDbEntity
  8
Vermassung
  6
AUSGEZOGEN
 62
     7
370
    25
100
AcDbLine
 10
323.085060119629
 20
350.319090478885
 30
0.0
 11
322.085060119629
 21
350.72006093787
 31
0.0
  0
LINE
  5
127
330
F9
100
AcDbEntity
  8
Vermassung
  6
AUSGEZOGEN
 62
     7
370
    25
100
AcDbLine
 10
322.085060119629
 20
350.72006093787
 30
0.0
 11
323.085060119629
 21
351.324247949588
 31
0.0
  0
LINE
  5
128
330
F9
100
AcDbEntity
  8
Vermassung
  6
AUSGEZOGEN
 62
     7
370
    25
100
AcDbLine
 10
323.085060119629
 20
351.324247949588
 30
0.0
 11
322.085060119629
 21
351.725218408573
 31
0.0
  0
LINE
  5
129
330
F9
100
AcDbEntity
  8
Vermassung
  6
AUSGEZOGEN
 62
     7
370
    25
100
AcDbLine
 10
322.085060119629
 20
351.725218408573
 30
0.0
 11
323.085060119629
 21
352.329405420291
 31
0.0
  0
LINE
  5
12A
330
F9
100
AcDbEntity
  8
Vermassung
  6
AUSGEZOGEN
 62
     7
370
    25
100
AcDbLine
 10
323.085060119629
 20
352.329405420291
 30
0.0
 11
322.085060119629
 21
352.730375879276
 31
0.0
  0
LINE
  5
12B
330
F9
100
AcDbEntity
  8
Vermassung
  6
AUSGEZOGEN
 62
     7
370
    25
100
AcDbLine
 10
322.085060119629
 20
352.730375879276
 30
0.0
 11
322.530548095703
 21
352.99951040076
 31
0.0
  0
LINE
  5
12C
330
F9
100
AcDbEntity
  8
Vermassung
  6
AUSGEZOGEN
 62
     7
370
    25
100
AcDbLine
 10
316.085052490234
 20
352.623320215213
 30
0.0
 11
319.787750244141
 21
352.99951040076
 31
0.0
  0
LINE
  5
12D
330
F9
100
AcDbEntity
  8
Vermassung
  6
AUSGEZOGEN
 62
     7
370
    25
100
AcDbLine
 10
316.085067749023
 20
351.61816274451
 30
0.0
 11
323.085060119629
 21
352.329405420291
 31
0.0
  0
LINE
  5
12E
330
F9
100
AcDbEntity
  8
Vermassung
  6
AUSGEZOGEN
 62
     7
370
    25
100
AcDbLine
 10
316.085060119629
 20
350.613005273807
 30
0.0
 11
323.085052490234
 21
351.324247949588
 31
0.0
  0
LINE
  5
12F
330
F9
100
AcDbEntity
  8
Vermassung
  6
AUSGEZOGEN
 62
     7
370
    25
100
AcDbLine
 10
316.085060119629
 20
349.607847803104
 30
0.0
 11
323.085067749023
 21
350.319090478885
 31
0.0
  0
LINE
  5
130
330
F9
100
AcDbEntity
  8
Vermassung
  6
AUSGEZOGEN
 62
     7
370
    25
100
AcDbLine
 10
316.085060119629
 20
348.602720849979
 30
0.0
 11
323.085067749023
 21
349.313933008182
 31
0.0
  0
LINE
  5
131
330
F9
100
AcDbEntity
  8
Vermassung
  6
AUSGEZOGEN
 62
     7
370
    25
100
AcDbLine
 10
320.041229248047
 20
347.999525659549
 30
0.0
 11
323.08504486084
 21
348.308775537479
 31
0.0
  0
LINE
  5
132
330
F9
100
AcDbEntity
  8
Vermassung
  6
AUSGEZOGEN
 62
     7
370
    25
100
AcDbLine
 10
316.044453024524
 20
384.492248811768
 30
0.0
 11
323.044453024524
 21
385.20349148755
 31
0.0
  0
LINE
  5
133
330
F9
100
AcDbEntity
  8
Vermassung
  6
AUSGEZOGEN
 62
     7
370
    25
100
AcDbLine
 10
316.044453024524
 20
385.497406282472
 30
0.0
 11
323.044453024524
 21
386.208618440675
 31
0.0
  0
LINE
  5
134
330
F9
100
AcDbEntity
  8
Vermassung
  6
AUSGEZOGEN
 62
     7
370
    25
100
AcDbLine
 10
316.044453024524
 20
386.502563753175
 30
0.0
 11
323.044453024524
 21
387.213775911378
 31
0.0
  0
LINE
  5
135
330
F9
100
AcDbEntity
  8
Vermassung
  6
AUSGEZOGEN
 62
     7
370
    25
100
AcDbLine
 10
316.044453024524
 20
387.5076907063
 30
0.0
 11
323.044453024524
 21
388.218933382081
 31
0.0
  0
LINE
  5
136
330
F9
100
AcDbEntity
  8
Vermassung
  6
AUSGEZOGEN
 62
     7
370
    25
100
AcDbLine
 10
316.044453024524
 20
388.512848177003
 30
0.0
 11
323.044453024524
 21
389.224090852784
 31
0.0
  0
LINE
  5
137
330
F9
100
AcDbEntity
  8
Vermassung
  6
AUSGEZOGEN
 62
     7
370
    25
100
AcDbLine
 10
316.044453024524
 20
389.518005647706
 30
0.0
 11
323.044453024524
 21
390.229248323487
 31
0.0
  0
LINE
  5
138
330
F9
100
AcDbEntity
  8
Vermassung
  6
AUSGEZOGEN
 62
     7
370
    25
100
AcDbLine
 10
316.044453024524
 20
390.523163118409
 30
0.0
 11
323.044453024524
 21
391.234375276612
 31
0.0
  0
LINE
  5
139
330
F9
100
AcDbEntity
  8
Vermassung
  6
AUSGEZOGEN
 62
     7
370
    25
100
AcDbLine
 10
315.707653402942
 20
378.596405305909
 30
0.0
 11
315.044453024524
 21
378.862304964112
 31
0.0
  0
LINE
  5
13A
330
F9
100
AcDbEntity
  8
Vermassung
  6
AUSGEZOGEN
 62
     7
370
    25
100
AcDbLine
 10
315.044453024524
 20
378.862304964112
 30
0.0
 11
316.044453024524
 21
379.466491975831
 31
0.0
  0
LINE
  5
13B
330
F9
100
AcDbEntity
  8
Vermassung
  6
AUSGEZOGEN
 62
     7
370
    25
100
AcDbLine
 10
316.044453024524
 20
379.466491975831
 30
0.0
 11
315.044453024524
 21
379.867462434815
 31
0.0
  0
LINE
  5
13C
330
F9
100
AcDbEntity
  8
Vermassung
  6
AUSGEZOGEN
 62
     7
370
    25
100
AcDbLine
 10
315.044453024524
 20
379.867462434815
 30
0.0
 11
316.044453024524
 21
380.471649446534
 31
0.0
  0
LINE
  5
13D
330
F9
100
AcDbEntity
  8
Vermassung
  6
AUSGEZOGEN
 62
     7
370
    25
100
AcDbLine
 10
316.044453024524
 20
380.471649446534
 30
0.0
 11
315.044453024524
 21
380.872619905518
 31
0.0
  0
LINE
  5
13E
330
F9
100
AcDbEntity
  8
Vermassung
  6
AUSGEZOGEN
 62
     7
370
    25
100
AcDbLine
 10
315.044453024524
 20
380.872619905518
 30
0.0
 11
316.044453024524
 21
381.476806917237
 31
0.0
  0
LINE
  5
13F
330
F9
100
AcDbEntity
  8
Vermassung
  6
AUSGEZOGEN
 62
     7
370
    25
100
AcDbLine
 10
316.044453024524
 20
381.476806917237
 30
0.0
 11
315.044453024524
 21
381.877777376222
 31
0.0
  0
LINE
  5
140
330
F9
100
AcDbEntity
  8
Vermassung
  6
AUSGEZOGEN
 62
     7
370
    25
100
AcDbLine
 10
315.044453024524
 20
381.877777376222
 30
0.0
 11
316.044453024524
 21
382.481933870362
 31
0.0
  0
LINE
  5
141
330
F9
100
AcDbEntity
  8
Vermassung
  6
AUSGEZOGEN
 62
     7
370
    25
100
AcDbLine
 10
316.044453024524
 20
382.481933870362
 30
0.0
 11
315.044453024524
 21
382.882934846925
 31
0.0
  0
LINE
  5
142
330
F9
100
AcDbEntity
  8
Vermassung
  6
AUSGEZOGEN
 62
     7
370
    25
100
AcDbLine
 10
315.044453024524
 20
382.882934846925
 30
0.0
 11
316.044453024524
 21
383.487091341065
 31
0.0
  0
LINE
  5
143
330
F9
100
AcDbEntity
  8
Vermassung
  6
AUSGEZOGEN
 62
     7
370
    25
100
AcDbLine
 10
316.044453024524
 20
383.487091341065
 30
0.0
 11
315.044453024524
 21
383.88806180005
 31
0.0
  0
LINE
  5
144
330
F9
100
AcDbEntity
  8
Vermassung
  6
AUSGEZOGEN
 62
     7
370
    25
100
AcDbLine
 10
315.044453024524
 20
383.88806180005
 30
0.0
 11
316.044453024524
 21
384.492248811768
 31
0.0
  0
LINE
  5
145
330
F9
100
AcDbEntity
  8
Vermassung
  6
AUSGEZOGEN
 62
     7
370
    25
100
AcDbLine
 10
316.044453024524
 20
384.492248811768
 30
0.0
 11
315.044453024524
 21
384.893219270753
 31
0.0
  0
LINE
  5
146
330
F9
100
AcDbEntity
  8
Vermassung
  6
AUSGEZOGEN
 62
     7
370
    25
100
AcDbLine
 10
315.044453024524
 20
384.893219270753
 30
0.0
 11
316.044453024524
 21
385.497406282472
 31
0.0
  0
LINE
  5
147
330
F9
100
AcDbEntity
  8
Vermassung
  6
AUSGEZOGEN
 62
     7
370
    25
100
AcDbLine
 10
316.044453024524
 20
385.497406282472
 30
0.0
 11
315.044453024524
 21
385.898376741456
 31
0.0
  0
LINE
  5
148
330
F9
100
AcDbEntity
  8
Vermassung
  6
AUSGEZOGEN
 62
     7
370
    25
100
AcDbLine
 10
315.044453024524
 20
385.898376741456
 30
0.0
 11
316.044453024524
 21
386.502563753175
 31
0.0
  0
LINE
  5
149
330
F9
100
AcDbEntity
  8
Vermassung
  6
AUSGEZOGEN
 62
     7
370
    25
100
AcDbLine
 10
316.044453024524
 20
386.502563753175
 30
0.0
 11
315.044453024524
 21
386.903534212159
 31
0.0
  0
LINE
  5
14A
330
F9
100
AcDbEntity
  8
Vermassung
  6
AUSGEZOGEN
 62
     7
370
    25
100
AcDbLine
 10
315.044453024524
 20
386.903534212159
 30
0.0
 11
316.044453024524
 21
387.5076907063
 31
0.0
  0
LINE
  5
14B
330
F9
100
AcDbEntity
  8
Vermassung
  6
AUSGEZOGEN
 62
     7
370
    25
100
AcDbLine
 10
316.044453024524
 20
387.5076907063
 30
0.0
 11
315.044453024524
 21
387.908661165284
 31
0.0
  0
LINE
  5
14C
330
F9
100
AcDbEntity
  8
Vermassung
  6
AUSGEZOGEN
 62
     7
370
    25
100
AcDbLine
 10
315.044453024524
 20
387.908661165284
 30
0.0
 11
316.044453024524
 21
388.512848177003
 31
0.0
  0
LINE
  5
14D
330
F9
100
AcDbEntity
  8
Vermassung
  6
AUSGEZOGEN
 62
     7
370
    25
100
AcDbLine
 10
316.044453024524
 20
388.512848177003
 30
0.0
 11
315.044453024524
 21
388.913818635987
 31
0.0
  0
LINE
  5
14E
330
F9
100
AcDbEntity
  8
Vermassung
  6
AUSGEZOGEN
 62
     7
370
    25
100
AcDbLine
 10
315.044453024524
 20
388.913818635987
 30
0.0
 11
316.044453024524
 21
389.518005647706
 31
0.0
  0
LINE
  5
14F
330
F9
100
AcDbEntity
  8
Vermassung
  6
AUSGEZOGEN
 62
     7
370
    25
100
AcDbLine
 10
316.044453024524
 20
389.518005647706
 30
0.0
 11
315.044453024524
 21
389.91897610669
 31
0.0
  0
LINE
  5
150
330
F9
100
AcDbEntity
  8
Vermassung
  6
AUSGEZOGEN
 62
     7
370
    25
100
AcDbLine
 10
315.044453024524
 20
389.91897610669
 30
0.0
 11
316.044453024524
 21
390.523163118409
 31
0.0
  0
LINE
  5
151
330
F9
100
AcDbEntity
  8
Vermassung
  6
AUSGEZOGEN
 62
     7
370
    25
100
AcDbLine
 10
316.044453024524
 20
390.523163118409
 30
0.0
 11
315.044453024524
 21
390.924133577393
 31
0.0
  0
LINE
  5
152
330
F9
100
AcDbEntity
  8
Vermassung
  6
AUSGEZOGEN
 62
     7
370
    25
100
AcDbLine
 10
315.044453024524
 20
390.924133577393
 30
0.0
 11
316.044453024524
 21
391.528320589112
 31
0.0
  0
LINE
  5
153
330
F9
100
AcDbEntity
  8
Vermassung
  6
AUSGEZOGEN
 62
     7
370
    25
100
AcDbLine
 10
316.044453024524
 20
391.528320589112
 30
0.0
 11
315.044453024524
 21
391.929291048097
 31
0.0
  0
LINE
  5
154
330
F9
100
AcDbEntity
  8
Vermassung
  6
AUSGEZOGEN
 62
     7
370
    25
100
AcDbLine
 10
315.044453024524
 20
391.929291048097
 30
0.0
 11
316.044453024524
 21
392.533447542237
 31
0.0
  0
LINE
  5
155
330
F9
100
AcDbEntity
  8
Vermassung
  6
AUSGEZOGEN
 62
     7
370
    25
100
AcDbLine
 10
316.044453024524
 20
392.533447542237
 30
0.0
 11
315.044453024524
 21
392.934418001222
 31
0.0
  0
LINE
  5
156
330
F9
100
AcDbEntity
  8
Vermassung
  6
AUSGEZOGEN
 62
     7
370
    25
100
AcDbLine
 10
315.044453024524
 20
392.934418001222
 30
0.0
 11
316.044453024524
 21
393.53860501294
 31
0.0
  0
LINE
  5
157
330
F9
100
AcDbEntity
  8
Vermassung
  6
AUSGEZOGEN
 62
     7
370
    25
100
AcDbLine
 10
316.044453024524
 20
393.53860501294
 30
0.0
 11
315.044453024524
 21
393.939575471925
 31
0.0
  0
LINE
  5
158
330
F9
100
AcDbEntity
  8
Vermassung
  6
AUSGEZOGEN
 62
     7
370
    25
100
AcDbLine
 10
315.044453024524
 20
393.939575471925
 30
0.0
 11
316.044453024524
 21
394.543762483643
 31
0.0
  0
LINE
  5
159
330
F9
100
AcDbEntity
  8
Vermassung
  6
AUSGEZOGEN
 62
     7
370
    25
100
AcDbLine
 10
316.044453024524
 20
394.543762483643
 30
0.0
 11
315.044453024524
 21
394.944732942628
 31
0.0
  0
LINE
  5
15A
330
F9
100
AcDbEntity
  8
Vermassung
  6
AUSGEZOGEN
 62
     7
370
    25
100
AcDbLine
 10
315.044453024524
 20
394.944732942628
 30
0.0
 11
315.665745138782
 21
395.320099153565
 31
0.0
  0
LINE
  5
15B
330
F9
100
AcDbEntity
  8
Vermassung
  6
AUSGEZOGEN
 62
     7
370
    25
100
AcDbLine
 10
322.044453024524
 20
378.56839016919
 30
0.0
 11
323.044453024524
 21
379.172577180909
 31
0.0
  0
LINE
  5
15C
330
F9
100
AcDbEntity
  8
Vermassung
  6
AUSGEZOGEN
 62
     7
370
    25
100
AcDbLine
 10
323.044453024524
 20
379.172577180909
 30
0.0
 11
322.044453024524
 21
379.573547639893
 31
0.0
  0
LINE
  5
15D
330
F9
100
AcDbEntity
  8
Vermassung
  6
AUSGEZOGEN
 62
     7
370
    25
100
AcDbLine
 10
322.044453024524
 20
379.573547639893
 30
0.0
 11
323.044453024524
 21
380.177734651612
 31
0.0
  0
LINE
  5
15E
330
F9
100
AcDbEntity
  8
Vermassung
  6
AUSGEZOGEN
 62
     7
370
    25
100
AcDbLine
 10
323.044453024524
 20
380.177734651612
 30
0.0
 11
322.044453024524
 21
380.578705110597
 31
0.0
  0
LINE
  5
15F
330
F9
100
AcDbEntity
  8
Vermassung
  6
AUSGEZOGEN
 62
     7
370
    25
100
AcDbLine
 10
322.044453024524
 20
380.578705110597
 30
0.0
 11
323.044453024524
 21
381.182861604737
 31
0.0
  0
LINE
  5
160
330
F9
100
AcDbEntity
  8
Vermassung
  6
AUSGEZOGEN
 62
     7
370
    25
100
AcDbLine
 10
323.044453024524
 20
381.182861604737
 30
0.0
 11
322.044453024524
 21
381.5838625813
 31
0.0
  0
LINE
  5
161
330
F9
100
AcDbEntity
  8
Vermassung
  6
AUSGEZOGEN
 62
     7
370
    25
100
AcDbLine
 10
322.044453024524
 20
381.5838625813
 30
0.0
 11
323.044453024524
 21
382.18801907544
 31
0.0
  0
LINE
  5
162
330
F9
100
AcDbEntity
  8
Vermassung
  6
AUSGEZOGEN
 62
     7
370
    25
100
AcDbLine
 10
323.044453024524
 20
382.18801907544
 30
0.0
 11
322.044453024524
 21
382.588989534425
 31
0.0
  0
LINE
  5
163
330
F9
100
AcDbEntity
  8
Vermassung
  6
AUSGEZOGEN
 62
     7
370
    25
100
AcDbLine
 10
322.044453024524
 20
382.588989534425
 30
0.0
 11
323.044453024524
 21
383.193176546143
 31
0.0
  0
LINE
  5
164
330
F9
100
AcDbEntity
  8
Vermassung
  6
AUSGEZOGEN
 62
     7
370
    25
100
AcDbLine
 10
323.044453024524
 20
383.193176546143
 30
0.0
 11
322.044453024524
 21
383.594147005128
 31
0.0
  0
LINE
  5
165
330
F9
100
AcDbEntity
  8
Vermassung
  6
AUSGEZOGEN
 62
     7
370
    25
100
AcDbLine
 10
322.044453024524
 20
383.594147005128
 30
0.0
 11
323.044453024524
 21
384.198334016847
 31
0.0
  0
LINE
  5
166
330
F9
100
AcDbEntity
  8
Vermassung
  6
AUSGEZOGEN
 62
     7
370
    25
100
AcDbLine
 10
323.044453024524
 20
384.198334016847
 30
0.0
 11
322.044453024524
 21
384.599304475831
 31
0.0
  0
LINE
  5
167
330
F9
100
AcDbEntity
  8
Vermassung
  6
AUSGEZOGEN
 62
     7
370
    25
100
AcDbLine
 10
322.044453024524
 20
384.599304475831
 30
0.0
 11
323.044453024524
 21
385.20349148755
 31
0.0
  0
LINE
  5
168
330
F9
100
AcDbEntity
  8
Vermassung
  6
AUSGEZOGEN
 62
     7
370
    25
100
AcDbLine
 10
323.044453024524
 20
385.20349148755
 30
0.0
 11
322.044453024524
 21
385.604461946534
 31
0.0
  0
LINE
  5
169
330
F9
100
AcDbEntity
  8
Vermassung
  6
AUSGEZOGEN
 62
     7
370
    25
100
AcDbLine
 10
322.044453024524
 20
385.604461946534
 30
0.0
 11
323.044453024524
 21
386.208618440675
 31
0.0
  0
LINE
  5
16A
330
F9
100
AcDbEntity
  8
Vermassung
  6
AUSGEZOGEN
 62
     7
370
    25
100
AcDbLine
 10
323.044453024524
 20
386.208618440675
 30
0.0
 11
322.044453024524
 21
386.609619417237
 31
0.0
  0
LINE
  5
16B
330
F9
100
AcDbEntity
  8
Vermassung
  6
AUSGEZOGEN
 62
     7
370
    25
100
AcDbLine
 10
322.044453024524
 20
386.609619417237
 30
0.0
 11
323.044453024524
 21
387.213775911378
 31
0.0
  0
LINE
  5
16C
330
F9
100
AcDbEntity
  8
Vermassung
  6
AUSGEZOGEN
 62
     7
370
    25
100
AcDbLine
 10
323.044453024524
 20
387.213775911378
 30
0.0
 11
322.044453024524
 21
387.614746370362
 31
0.0
  0
LINE
  5
16D
330
F9
100
AcDbEntity
  8
Vermassung
  6
AUSGEZOGEN
 62
     7
370
    25
100
AcDbLine
 10
322.044453024524
 20
387.614746370362
 30
0.0
 11
323.044453024524
 21
388.218933382081
 31
0.0
  0
LINE
  5
16E
330
F9
100
AcDbEntity
  8
Vermassung
  6
AUSGEZOGEN
 62
     7
370
    25
100
AcDbLine
 10
323.044453024524
 20
388.218933382081
 30
0.0
 11
322.044453024524
 21
388.619903841065
 31
0.0
  0
LINE
  5
16F
330
F9
100
AcDbEntity
  8
Vermassung
  6
AUSGEZOGEN
 62
     7
370
    25
100
AcDbLine
 10
322.044453024524
 20
388.619903841065
 30
0.0
 11
323.044453024524
 21
389.224090852784
 31
0.0
  0
LINE
  5
170
330
F9
100
AcDbEntity
  8
Vermassung
  6
AUSGEZOGEN
 62
     7
370
    25
100
AcDbLine
 10
323.044453024524
 20
389.224090852784
 30
0.0
 11
322.044453024524
 21
389.625061311768
 31
0.0
  0
LINE
  5
171
330
F9
100
AcDbEntity
  8
Vermassung
  6
AUSGEZOGEN
 62
     7
370
    25
100
AcDbLine
 10
322.044453024524
 20
389.625061311768
 30
0.0
 11
323.044453024524
 21
390.229248323487
 31
0.0
  0
LINE
  5
172
330
F9
100
AcDbEntity
  8
Vermassung
  6
AUSGEZOGEN
 62
     7
370
    25
100
AcDbLine
 10
323.044453024524
 20
390.229248323487
 30
0.0
 11
322.044453024524
 21
390.630218782472
 31
0.0
  0
LINE
  5
173
330
F9
100
AcDbEntity
  8
Vermassung
  6
AUSGEZOGEN
 62
     7
370
    25
100
AcDbLine
 10
322.044453024524
 20
390.630218782472
 30
0.0
 11
323.044453024524
 21
391.234375276612
 31
0.0
  0
LINE
  5
174
330
F9
100
AcDbEntity
  8
Vermassung
  6
AUSGEZOGEN
 62
     7
370
    25
100
AcDbLine
 10
323.044453024524
 20
391.234375276612
 30
0.0
 11
322.044453024524
 21
391.635376253175
 31
0.0
  0
LINE
  5
175
330
F9
100
AcDbEntity
  8
Vermassung
  6
AUSGEZOGEN
 62
     7
370
    25
100
AcDbLine
 10
322.044453024524
 20
391.635376253175
 30
0.0
 11
323.044453024524
 21
392.239532747315
 31
0.0
  0
LINE
  5
176
330
F9
100
AcDbEntity
  8
Vermassung
  6
AUSGEZOGEN
 62
     7
370
    25
100
AcDbLine
 10
323.044453024524
 20
392.239532747315
 30
0.0
 11
322.044453024524
 21
392.6405032063
 31
0.0
  0
LINE
  5
177
330
F9
100
AcDbEntity
  8
Vermassung
  6
AUSGEZOGEN
 62
     7
370
    25
100
AcDbLine
 10
322.044453024524
 20
392.6405032063
 30
0.0
 11
323.044453024524
 21
393.244690218018
 31
0.0
  0
LINE
  5
178
330
F9
100
AcDbEntity
  8
Vermassung
  6
AUSGEZOGEN
 62
     7
370
    25
100
AcDbLine
 10
323.044453024524
 20
393.244690218018
 30
0.0
 11
322.044453024524
 21
393.645660677003
 31
0.0
  0
LINE
  5
179
330
F9
100
AcDbEntity
  8
Vermassung
  6
AUSGEZOGEN
 62
     7
370
    25
100
AcDbLine
 10
322.044453024524
 20
393.645660677003
 30
0.0
 11
323.044453024524
 21
394.249847688722
 31
0.0
  0
LINE
  5
17A
330
F9
100
AcDbEntity
  8
Vermassung
  6
AUSGEZOGEN
 62
     7
370
    25
100
AcDbLine
 10
323.044453024524
 20
394.249847688722
 30
0.0
 11
322.044453024524
 21
394.650818147706
 31
0.0
  0
LINE
  5
17B
330
F9
100
AcDbEntity
  8
Vermassung
  6
AUSGEZOGEN
 62
     7
370
    25
100
AcDbLine
 10
322.044453024524
 20
394.650818147706
 30
0.0
 11
323.044453024524
 21
395.255005159425
 31
0.0
  0
LINE
  5
17C
330
F9
100
AcDbEntity
  8
Vermassung
  6
AUSGEZOGEN
 62
     7
370
    25
100
AcDbLine
 10
323.044453024524
 20
395.255005159425
 30
0.0
 11
322.882068991321
 21
395.320099153565
 31
0.0
  0
LINE
  5
17D
330
F9
100
AcDbEntity
  8
Vermassung
  6
AUSGEZOGEN
 62
     7
370
    25
100
AcDbLine
 10
316.04444539513
 20
383.487091341065
 30
0.0
 11
323.044453024524
 21
384.198334016847
 31
0.0
  0
LINE
  5
17E
330
F9
100
AcDbEntity
  8
Vermassung
  6
AUSGEZOGEN
 62
     7
370
    25
100
AcDbLine
 10
316.044460653919
 20
382.481933870362
 30
0.0
 11
323.04444539513
 21
383.193176546143
 31
0.0
  0
LINE
  5
17F
330
F9
100
AcDbEntity
  8
Vermassung
  6
AUSGEZOGEN
 62
     7
370
    25
100
AcDbLine
 10
316.044453024524
 20
381.476806917237
 30
0.0
 11
323.044460653919
 21
382.18801907544
 31
0.0
  0
LINE
  5
180
330
F9
100
AcDbEntity
  8
Vermassung
  6
AUSGEZOGEN
 62
     7
370
    25
100
AcDbLine
 10
316.044453024524
 20
380.471649446534
 30
0.0
 11
323.044460653919
 21
381.182861604737
 31
0.0
  0
LINE
  5
181
330
F9
100
AcDbEntity
  8
Vermassung
  6
AUSGEZOGEN
 62
     7
370
    25
100
AcDbLine
 10
316.044453024524
 20
379.466491975831
 30
0.0
 11
323.044453024524
 21
380.177734651612
 31
0.0
  0
LINE
  5
182
330
F9
100
AcDbEntity
  8
Vermassung
  6
AUSGEZOGEN
 62
     7
370
    25
100
AcDbLine
 10
317.373630880969
 20
378.596405305909
 30
0.0
 11
323.044453024524
 21
379.172577180909
 31
0.0
  0
LINE
  5
183
330
F9
100
AcDbEntity
  8
Vermassung
  6
AUSGEZOGEN
 62
     7
370
    25
100
AcDbLine
 10
316.044453024524
 20
391.528320589112
 30
0.0
 11
322.94337117638
 21
392.229278841065
 31
0.0
  0
LINE
  5
184
330
F9
100
AcDbEntity
  8
Vermassung
  6
AUSGEZOGEN
 62
     7
370
    25
100
AcDbLine
 10
316.044453024524
 20
392.533447542237
 30
0.0
 11
322.842289328235
 21
393.22415188794
 31
0.0
  0
LINE
  5
185
330
F9
100
AcDbEntity
  8
Vermassung
  6
AUSGEZOGEN
 62
     7
370
    25
100
AcDbLine
 10
316.044453024524
 20
393.53860501294
 30
0.0
 11
322.741207480091
 21
394.219024934815
 31
0.0
  0
LINE
  5
186
330
F9
100
AcDbEntity
  8
Vermassung
  6
AUSGEZOGEN
 62
     7
370
    25
100
AcDbLine
 10
316.044453024524
 20
394.543762483643
 30
0.0
 11
323.04444539513
 21
395.255005159425
 31
0.0
  0
LINE
  5
187
330
F9
100
AcDbEntity
  8
Vermassung
  6
AUSGEZOGEN
 62
     7
370
    25
100
AcDbLine
 10
315.707653402942
 20
378.596405305909
 30
0.0
 11
322.090793966907
 21
378.596405305909
 31
0.0
  0
LINE
  5
188
330
F9
100
AcDbEntity
  8
Vermassung
  6
AUSGEZOGEN
 62
     7
370
    25
100
AcDbLine
 10
312.648289084094
 20
395.320099153565
 30
0.0
 11
325.448292135852
 21
395.320099153565
 31
0.0
  0
LINE
  5
189
330
F9
100
AcDbEntity
  8
Vermassung
  6
AUSGEZOGEN
 62
     7
370
    25
100
AcDbLine
 10
319.048290609973
 20
398.820099153565
 30
0.0
 11
319.048290609973
 21
403.320099153565
 31
0.0
  0
LINE
  5
18A
330
F9
100
AcDbEntity
  8
Vermassung
  6
AUSGEZOGEN
 62
     7
370
    25
100
AcDbLine
 10
313.348293661731
 20
403.320099153565
 30
0.0
 11
324.74829518761
 21
403.320099153565
 31
0.0
  0
LINE
  5
18B
330
F9
100
AcDbEntity
  8
Vermassung
  6
AUSGEZOGEN
 62
     7
370
    25
100
AcDbLine
 10
312.648289084094
 20
395.320099153565
 30
0.0
 11
312.648289084094
 21
402.620117464112
 31
0.0
  0
LINE
  5
18C
330
F9
100
AcDbEntity
  8
Vermassung
  6
AUSGEZOGEN
 62
     7
370
    25
100
AcDbLine
 10
325.448292135852
 20
395.320099153565
 30
0.0
 11
325.448292135852
 21
402.620117464112
 31
0.0
  0
LINE
  5
18D
330
F9
100
AcDbEntity
  8
Vermassung
  6
AUSGEZOGEN
 62
     7
370
    25
100
AcDbLine
 10
322.048290609973
 20
398.820099153565
 30
0.0
 11
322.048290609973
 21
403.320099153565
 31
0.0
  0
LINE
  5
18E
330
F9
100
AcDbEntity
  8
Vermassung
  6
AUSGEZOGEN
 62
     7
370
    25
100
AcDbLine
 10
316.048290609973
 20
398.820099153565
 30
0.0
 11
316.048290609973
 21
403.320099153565
 31
0.0
  0
LINE
  5
18F
330
F9
100
AcDbEntity
  8
Vermassung
  6
AUSGEZOGEN
 62
     7
370
    25
100
AcDbLine
 10
316.048290609973
 20
398.820099153565
 30
0.0
 11
322.048290609973
 21
398.820099153565
 31
0.0
  0
ELLIPSE
  5
190
330
F9
100
AcDbEntity
  8
Vermassung
  6
AUSGEZOGEN
 62
     7
370
    25
100
AcDbEllipse
 10
319.084492087024
 20
398.83255032544
 30
0.0
 11
-3.064613022062247
 21
-0.03443356563957423
 31
0.0
210
0.0
220
0.0
230
1.0
 40
0.246907344612
 41
6.254149124269382
 42
9.362864081059591
  0
LINE
  5
191
330
F9
100
AcDbEntity
  8
Vermassung
  6
AUSGEZOGEN
 62
     7
370
    25
100
AcDbLine
 10
312.648289084094
 20
402.620117464112
 30
0.0
 11
313.348293661731
 21
403.320099153565
 31
0.0
  0
LINE
  5
192
330
F9
100
AcDbEntity
  8
Vermassung
  6
AUSGEZOGEN
 62
     7
370
    25
100
AcDbLine
 10
324.74829518761
 20
403.320099153565
 30
0.0
 11
325.448292135852
 21
402.620117464112
 31
0.0
  0
TEXT
  5
193
330
F9
100
AcDbEntity
  8
Text
  6
AUSGEZOGEN
 62
     7
370
    25
100
AcDbText
 10
234.995662863248
 20
456.475927792025
 30
0.0
 40
8.091766528071
  1
VARIANTEN ZU STANDROHR:
 41
0.944476312781
  7
Arial
 72
     5
 11
386.73713928658
 21
456.475927792025
 31
0.0
100
AcDbText
  0
TEXT
  5
194
330
F9
100
AcDbEntity
  8
Text
  6
AUSGEZOGEN
 62
     7
370
    25
100
AcDbText
 10
234.995662863248
 20
430.582274516352
 30
0.0
 40
8.091766528071
  1
Oberteil verschliessbar (Labor / Reinraum)
 41
1.007967812884
  7
Arial
 72
     5
 11
449.472155416688
 21
430.582274516352
 31
0.0
100
AcDbText
  0
ARC
  5
195
330
F9
100
AcDbEntity
  8
Vermassung
  6
AUSGEZOGEN
 62
     7
370
    25
100
AcDbCircle
 10
319.001347678133
 20
354.769685945
 30
0.0
 40
12.76077799822384
100
AcDbArc
 50
212.042250309263
 51
327.957749690737
  0
ARC
  5
196
330
F9
100
AcDbEntity
  8
Vermassung
  6
AUSGEZOGEN
 62
     7
370
    25
100
AcDbCircle
 10
319.001347678133
 20
354.879676322611
 30
0.0
 40
14.03258331771324
100
AcDbArc
 50
209.360184782627
 51
330.639815217373
  0
ENDBLK
  5
FB
330
F9
100
AcDbEntity
  8
0
100
AcDbBlockEnd
  0
BLOCK
  5
19B
330
19A
100
AcDbEntity
  8
0
100
AcDbBlockBegin
  2
*D7
 70
     1
 10
0.0
 20
0.0
 30
0.0
  3
*D7
  1

  0
HATCH
  5
19D
330
19A
100
AcDbEntity
  8
Vermassung
  6
AUSGEZOGEN
 62
     7
370
    25
100
AcDbHatch
 10
0.0
 20
0.0
 30
0.0
210
0.0
220
0.0
230
1.0
  2
SOLID
 70
     1
 71
     0
 91
        1
 92
        2
 72
     0
 73
     1
 93
        3
 10
392.999998092651
 20
123.010351822022
 10
386.999998092651
 20
124.210351822022
 10
386.999998092651
 20
121.810351822022
 97
        0
 75
     0
 76
     1
 98
        0
  0
HATCH
  5
19E
330
19A
100
AcDbEntity
  8
Vermassung
  6
AUSGEZOGEN
 62
     7
370
    25
100
AcDbHatch
 10
0.0
 20
0.0
 30
0.0
210
0.0
220
0.0
230
1.0
  2
SOLID
 70
     1
 71
     0
 91
        1
 92
        2
 72
     0
 73
     1
 93
        3
 10
269.000001907349
 20
123.010351822022
 10
275.000001907349
 20
121.810351822022
 10
275.000001907349
 20
124.210351822022
 97
        0
 75
     0
 76
     1
 98
        0
  0
LINE
  5
19F
330
19A
100
AcDbEntity
  8
Vermassung
  6
AUSGEZOGEN
 62
     7
370
    25
100
AcDbLine
 10
275.000001907349
 20
123.010351822022
 30
0.0
 11
386.999998092651
 21
123.010351822022
 31
0.0
  0
LINE
  5
1A0
330
19A
100
AcDbEntity
  8
Vermassung
  6
AUSGEZOGEN
 62
     7
370
    18
100
AcDbLine
 10
269.000001907349
 20
34.010351822022
 30
0.0
 11
269.000001907349
 21
127.296066107736
 31
0.0
  0
LINE
  5
1A1
330
19A
100
AcDbEntity
  8
Vermassung
  6
AUSGEZOGEN
 62
     7
370
    18
100
AcDbLine
 10
392.999998092651
 20
34.010351822022
 30
0.0
 11
392.999998092651
 21
127.296066107736
 31
0.0
  0
TEXT
  5
1A2
330
19A
100
AcDbEntity
  8
Vermassung
  6
AUSGEZOGEN
 62
     7
370
    18
100
AcDbText
 10
320.740740911961
 20
125.810351822022
 30
0.0
 40
6.0
  1
%%c124
 41
1.00168512869
  7
Arial
 72
     5
 11
341.259259088039
 21
125.810351822022
 31
0.0
100
AcDbText
  0
ENDBLK
  5
19C
330
19A
100
AcDbEntity
  8
0
100
AcDbBlockEnd
  0
BLOCK
  5
1A5
330
1A4
100
AcDbEntity
  8
0
100
AcDbBlockBegin
  2
*D8
 70
     1
 10
0.0
 20
0.0
 30
0.0
  3
*D8
  1

  0
HATCH
  5
1A7
330
1A4
100
AcDbEntity
  8
Vermassung
  6
AUSGEZOGEN
 62
     7
370
    25
100
AcDbHatch
 10
0.0
 20
0.0
 30
0.0
210
0.0
220
0.0
230
1.0
  2
SOLID
 70
     1
 71
     0
 91
        1
 92
        2
 72
     0
 73
     1
 93
        3
 10
-66.74262544606414
 20
161.228790283203
 10
-67.94262544606414
 20
155.228790283203
 10
-65.54262544606414
 20
155.228790283203
 97
        0
 75
     0
 76
     1
 98
        0
  0
HATCH
  5
1A8
330
1A4
100
AcDbEntity
  8
Vermassung
  6
AUSGEZOGEN
 62
     7
370
    25
100
AcDbHatch
 10
0.0
 20
0.0
 30
0.0
210
0.0
220
0.0
230
1.0
  2
SOLID
 70
     1
 71
     0
 91
        1
 92
        2
 72
     0
 73
     1
 93
        3
 10
-66.74262544606414
 20
163.228790283203
 10
-65.54262544606414
 20
169.228790283203
 10
-67.94262544606414
 20
169.228790283203
 97
        0
 75
     0
 76
     1
 98
        0
  0
LINE
  5
1A9
330
1A4
100
AcDbEntity
  8
Vermassung
  6
AUSGEZOGEN
 62
     7
370
    25
100
AcDbLine
 10
-66.742625446064
 20
155.228790283203
 30
0.0
 11
-66.742625446064
 21
149.228790283203
 31
0.0
  0
LINE
  5
1AA
330
1A4
100
AcDbEntity
  8
Vermassung
  6
AUSGEZOGEN
 62
     7
370
    25
100
AcDbLine
 10
-66.742625446064
 20
169.228790283203
 30
0.0
 11
-66.742625446064
 21
175.228790283203
 31
0.0
  0
LINE
  5
1AB
330
1A4
100
AcDbEntity
  8
Vermassung
  6
AUSGEZOGEN
 62
     7
370
    18
100
AcDbLine
 10
-58.154067993164
 20
163.228790283203
 30
0.0
 11
-71.028339731778
 21
163.228790283203
 31
0.0
  0
LINE
  5
1AC
330
1A4
100
AcDbEntity
  8
Vermassung
  6
AUSGEZOGEN
 62
     7
370
    18
100
AcDbLine
 10
-58.154067993164
 20
161.228790283203
 30
0.0
 11
-71.028339731778
 21
161.228790283203
 31
0.0
  0
TEXT
  5
1AD
330
1A4
100
AcDbEntity
  8
Vermassung
  6
AUSGEZOGEN
 62
     7
370
    18
100
AcDbText
 10
-73.122548233296
 20
159.228790283203
 30
0.0
 40
6.0
  1
2
 50
90.0
 41
0.85910652921
  7
Arial
 72
     5
 11
-73.122548233296
 21
163.228790283203
 31
0.0
100
AcDbText
  0
ENDBLK
  5
1A6
330
1A4
100
AcDbEntity
  8
0
100
AcDbBlockEnd
  0
BLOCK
  5
1BC
330
1BB
100
AcDbEntity
  8
0
100
AcDbBlockBegin
  2
*D9
 70
     1
 10
0.0
 20
0.0
 30
0.0
  3
*D9
  1

  0
HATCH
  5
1BE
330
1BB
100
AcDbEntity
  8
Text
  6
AUSGEZOGEN
 62
     7
370
    25
100
AcDbHatch
 10
0.0
 20
0.0
 30
0.0
210
0.0
220
0.0
230
1.0
  2
SOLID
 70
     1
 71
     0
 91
        1
 92
        2
 72
     0
 73
     1
 93
        3
 10
199.487048848867
 20
289.3
 10
200.687048848867
 20
295.3
 10
198.287048848867
 20
295.3
 97
        0
 75
     0
 76
     1
 98
        0
  0
HATCH
  5
1BF
330
1BB
100
AcDbEntity
  8
Text
  6
AUSGEZOGEN
 62
     7
370
    25
100
AcDbHatch
 10
0.0
 20
0.0
 30
0.0
210
0.0
220
0.0
230
1.0
  2
SOLID
 70
     1
 71
     0
 91
        1
 92
        2
 72
     0
 73
     1
 93
        3
 10
199.487048848867
 20
489.3
 10
198.287048848867
 20
483.3
 10
200.687048848867
 20
483.3
 97
        0
 75
     0
 76
     1
 98
        0
  0
LINE
  5
1C0
330
1BB
100
AcDbEntity
  8
Text
  6
AUSGEZOGEN
 62
     7
370
    25
100
AcDbLine
 10
199.487048848867
 20
483.3
 30
0.0
 11
199.487048848867
 21
295.3
 31
0.0
  0
LINE
  5
1C1
330
1BB
100
AcDbEntity
  8
Text
  6
AUSGEZOGEN
 62
     7
370
    18
100
AcDbLine
 10
136.345932006836
 20
489.3
 30
0.0
 11
203.772763134581
 21
489.3
 31
0.0
  0
LINE
  5
1C2
330
1BB
100
AcDbEntity
  8
Text
  6
AUSGEZOGEN
 62
     7
370
    18
100
AcDbLine
 10
154.195932006836
 20
289.3
 30
0.0
 11
203.772763134581
 21
289.3
 31
0.0
  0
TEXT
  5
1C3
330
1BB
100
AcDbEntity
  8
Text
  6
AUSGEZOGEN
 62
     7
370
    18
100
AcDbText
 10
196.687048848867
 20
388.133333333333
 30
0.0
 40
6.0
  1
 
 50
90.0
 41
1.002290950745
  7
Arial
 72
     5
 11
196.687048848867
 21
390.466666666667
 31
0.0
100
AcDbText
  0
ENDBLK
  5
1BD
330
1BB
100
AcDbEntity
  8
0
100
AcDbBlockEnd
  0
BLOCK
  5
1D8
330
1D7
100
AcDbEntity
  8
0
100
AcDbBlockBegin
  2
*D10
 70
     1
 10
0.0
 20
0.0
 30
0.0
  3
*D10
  1

  0
HATCH
  5
1DA
330
1D7
100
AcDbEntity
  8
Vermassung
  6
AUSGEZOGEN
 62
     7
370
    25
100
AcDbHatch
 10
0.0
 20
0.0
 30
0.0
210
0.0
220
0.0
230
1.0
  2
SOLID
 70
     1
 71
     0
 91
        1
 92
        2
 72
     0
 73
     1
 93
        3
 10
-8.825578305771
 20
163.228790283203
 10
-7.625578305771
 20
169.228790283203
 10
-10.025578305771
 20
169.228790283203
 97
        0
 75
     0
 76
     1
 98
        0
  0
HATCH
  5
1DB
330
1D7
100
AcDbEntity
  8
Vermassung
  6
AUSGEZOGEN
 62
     7
370
    25
100
AcDbHatch
 10
0.0
 20
0.0
 30
0.0
210
0.0
220
0.0
230
1.0
  2
SOLID
 70
     1
 71
     0
 91
        1
 92
        2
 72
     0
 73
     1
 93
        3
 10
-8.825578305771
 20
188.228790283203
 10
-10.025578305771
 20
182.228790283203
 10
-7.625578305771
 20
182.228790283203
 97
        0
 75
     0
 76
     1
 98
        0
  0
LINE
  5
1DC
330
1D7
100
AcDbEntity
  8
Vermassung
  6
AUSGEZOGEN
 62
     7
370
    25
100
AcDbLine
 10
-8.825578305771
 20
182.228790283203
 30
0.0
 11
-8.825578305771
 21
169.228790283203
 31
0.0
  0
LINE
  5
1DD
330
1D7
100
AcDbEntity
  8
Vermassung
  6
AUSGEZOGEN
 62
     7
370
    18
100
AcDbLine
 10
21.745908737183
 20
188.228790283203
 30
0.0
 11
-13.111292591485
 21
188.228790283203
 31
0.0
  0
LINE
  5
1DE
330
1D7
100
AcDbEntity
  8
Vermassung
  6
AUSGEZOGEN
 62
     7
370
    18
100
AcDbLine
 10
21.745908737183
 20
163.228790283203
 30
0.0
 11
-13.111292591485
 21
163.228790283203
 31
0.0
  0
TEXT
  5
1DF
330
1D7
100
AcDbEntity
  8
Vermassung
  6
AUSGEZOGEN
 62
     7
370
    18
100
AcDbText
 10
-13.6
 20
165.752617643571
 30
0.0
 40
6.0
  1
nach Angabe
 50
90.0
 41
1.2968591692
  7
Arial
 72
     5
 11
-13.6
 21
229.752617643571
 31
0.0
100
AcDbText
  0
ENDBLK
  5
1D9
330
1D7
100
AcDbEntity
  8
0
100
AcDbBlockEnd
  0
BLOCK
  5
1E3
330
1E2
100
AcDbEntity
  8
0
100
AcDbBlockBegin
  2
A4 Senkrecht neutral_nNn010
 70
     0
 10
0.0
 20
0.0
 30
0.0
  3
A4 Senkrecht neutral_nNn010
  1

  0
LINE
  5
1E5
330
1E2
100
AcDbEntity
  8
FREI LASSEN
  6
AUSGEZOGEN
 62
    18
420
        0
370
    18
100
AcDbLine
 10
-115.178538636705
 20
-152.59688489257
 30
0.0
 11
472.821461363295
 21
-152.59688489257
 31
0.0
  0
LINE
  5
1E6
330
1E2
100
AcDbEntity
  8
FREI LASSEN
  6
AUSGEZOGEN
 62
    18
420
        0
370
    18
100
AcDbLine
 10
472.821461363295
 20
-152.59688489257
 30
0.0
 11
472.821461363295
 21
679.00311510743
 31
0.0
  0
LINE
  5
1E7
330
1E2
100
AcDbEntity
  8
FREI LASSEN
  6
AUSGEZOGEN
 62
    18
420
        0
370
    18
100
AcDbLine
 10
472.821461363295
 20
679.00311510743
 30
0.0
 11
-115.178538636705
 21
679.00311510743
 31
0.0
  0
LINE
  5
1E8
330
1E2
100
AcDbEntity
  8
FREI LASSEN
  6
AUSGEZOGEN
 62
    18
420
        0
370
    18
100
AcDbLine
 10
-115.178538636705
 20
679.00311510743
 30
0.0
 11
-115.178538636705
 21
-152.59688489257
 31
0.0
  0
LINE
  5
1E9
330
1E2
100
AcDbEntity
  8
FREI LASSEN
  6
AUSGEZOGEN
 62
    18
420
        0
370
    18
100
AcDbLine
 10
453.221461363295
 20
653.80311510743
 30
0.0
 11
-61.978538636705
 21
653.80311510743
 31
0.0
  0
LINE
  5
1EA
330
1E2
100
AcDbEntity
  8
FREI LASSEN
  6
AUSGEZOGEN
 62
    18
420
        0
370
    18
100
AcDbLine
 10
-61.978538636705
 20
-117.59688489257
 30
0.0
 11
453.221461363295
 21
-117.59688489257
 31
0.0
  0
WIPEOUT
  5
1EB
330
1E2
100
AcDbEntity
  8
FREI LASSEN
  6
AUSGEZOGEN
 62
    18
420
        0
370
    18
160
               128
310
80000000020000000C00000014000000010000006C00000007000000040000003060C3F4FF6E7940D2053935F07F84400000000000000000A4C854E27C967B40D2053935F07F84400000000000000000A4C854E27C967B406C9FD2CE89D9844000000000000000003060C3F4FF6E79406C9FD2CE89D9844000000000000000
310
00
100
AcDbWipeout
 90
        0
 10
406.93748928374
 20
655.99228901433
 30
0.0
 11
34.46800000000002
 21
0.0
 31
0.0
 12
0.0
 22
34.46800000000002
 32
0.0
 13
1.0
 23
1.0
340
0
 70
     7
280
     1
281
    50
282
    50
283
     0
360
0
 71
     2
 91
        5
 14
-0.5
 24
0.5
 14
0.5
 24
0.5
 14
0.5
 24
0.175060926076
 14
-0.5
 24
0.175060926076
 14
-0.5
 24
0.5
290
     0
  0
TEXT
  5
1EC
330
1E2
100
AcDbEntity
  8
FREI LASSEN
  6
AUSGEZOGEN
 62
    18
420
        0
370
    18
100
AcDbText
 10
406.93748928374
 20
658.09228901433
 30
0.0
 40
7.0
  1
Blatt 49
 41
1.040354954574
  7
Arial
 72
     5
 11
441.40548928374
 21
658.09228901433
 31
0.0
100
AcDbText
  0
WIPEOUT
  5
1ED
330
1E2
100
AcDbEntity
  8
FREI LASSEN
  6
AUSGEZOGEN
 62
    18
420
        0
370
    18
160
               128
310
80000000020000000C00000014000000010000006C000000070000000400000038CD68ED90204FC09E88C2DF889160C00000000000000000FB5690ECC4607C409E88C2DF889160C00000000000000000FB5690ECC4607C407044B8F244565EC0000000000000000038CD68ED90204FC07044B8F244565EC000000000000000
310
00
100
AcDbWipeout
 90
        0
 10
-62.254422832654
 20
-132.547958259533
 30
0.0
 11
516.3024999999999
 21
0.0
 31
0.0
 12
0.0
 22
516.3024999999999
 32
0.0
 13
1.0
 23
1.0
340
0
 70
     7
280
     1
281
    50
282
    50
283
     0
360
0
 71
     2
 91
        5
 14
-0.5
 24
0.5
 14
0.5
 24
0.5
 14
0.5
 24
0.478307290784
 14
-0.5
 24
0.478307290784
 14
-0.5
 24
0.5
290
     0
  0
TEXT
  5
1EE
330
1E2
100
AcDbEntity
  8
FREI LASSEN
  6
AUSGEZOGEN
 62
    18
420
        0
370
    18
100
AcDbText
 10
-62.254422832654
 20
-130.447958259533
 30
0.0
 40
7.0
  1
SCHECO Entwässerungstechnik AG   Industriestrasse 7   8355 Aadorf   Telefon 052 368 08 80   Telefax 052 368 08 88
 41
0.998598719216
  7
Arial
 72
     5
 11
454.048077167346
 21
-130.447958259533
 31
0.0
100
AcDbText
  0
CIRCLE
  5
1EF
330
1E2
100
AcDbEntity
  8
FREI LASSEN
  6
AUSGEZOGEN
 62
    18
420
        0
370
    18
100
AcDbCircle
 10
98.476639455369
 20
-126.76047572662
 30
0.0
 40
1.4
  0
CIRCLE
  5
1F0
330
1E2
100
AcDbEntity
  8
FREI LASSEN
  6
AUSGEZOGEN
 62
    18
420
        0
370
    18
100
AcDbCircle
 10
185.155623984189
 20
-126.904529018506
 30
0.0
 40
1.4
  0
CIRCLE
  5
1F1
330
1E2
100
AcDbEntity
  8
FREI LASSEN
  6
AUSGEZOGEN
 62
    18
420
        0
370
    18
100
AcDbCircle
 10
246.990282933962
 20
-126.842874929845
 30
0.0
 40
1.4
  0
CIRCLE
  5
1F2
330
1E2
100
AcDbEntity
  8
FREI LASSEN
  6
AUSGEZOGEN
 62
    18
420
        0
370
    18
100
AcDbCircle
 10
353.360797544222
 20
-126.901324553028
 30
0.0
 40
1.4
  0
HATCH
  5
1F3
330
1E2
100
AcDbEntity
  8
FREI LASSEN
  6
AUSGEZOGEN
 62
    18
420
        0
370
    18
100
AcDbHatch
 10
0.0
 20
0.0
 30
0.0
210
0.0
220
0.0
230
1.0
  2
SOLID
 70
     1
 71
     0
 91
        3
 92
        2
 72
     1
 73
     1
 93
        2
 10
99.8766394553686
 20
-126.7604757266205
 42
1.000000000000016
 10
97.07663945536865
 20
-126.7604757266205
 42
1.000000000000016
 97
        0
 92
        2
 72
     1
 73
     1
 93
        2
 10
99.8766394553686
 20
-126.7604757266205
 42
1.000000000000016
 10
97.07663945536865
 20
-126.7604757266205
 42
1.000000000000016
 97
        0
 92
        2
 72
     1
 73
     1
 93
        2
 10
99.8766394553686
 20
-126.7604757266205
 42
1.000000000000016
 10
97.07663945536865
 20
-126.7604757266205
 42
1.000000000000016
 97
        0
 75
     0
 76
     1
 98
        0
  0
HATCH
  5
1F4
330
1E2
100
AcDbEntity
  8
FREI LASSEN
  6
AUSGEZOGEN
 62
    18
420
        0
370
    18
100
AcDbHatch
 10
0.0
 20
0.0
 30
0.0
210
0.0
220
0.0
230
1.0
  2
SOLID
 70
     1
 71
     0
 91
        3
 92
        2
 72
     1
 73
     1
 93
        2
 10
186.5556239841889
 20
-126.9045290185059
 42
0.9999999999999756
 10
183.7556239841888
 20
-126.9045290185059
 42
0.9999999999999756
 97
        0
 92
        2
 72
     1
 73
     1
 93
        2
 10
186.5556239841889
 20
-126.9045290185059
 42
0.9999999999999756
 10
183.7556239841888
 20
-126.9045290185059
 42
0.9999999999999756
 97
        0
 92
        2
 72
     1
 73
     1
 93
        2
 10
186.5556239841889
 20
-126.9045290185059
 42
0.9999999999999756
 10
183.7556239841888
 20
-126.9045290185059
 42
0.9999999999999756
 97
        0
 75
     0
 76
     1
 98
        0
  0
HATCH
  5
1F5
330
1E2
100
AcDbEntity
  8
FREI LASSEN
  6
AUSGEZOGEN
 62
    18
420
        0
370
    18
100
AcDbHatch
 10
0.0
 20
0.0
 30
0.0
210
0.0
220
0.0
230
1.0
  2
SOLID
 70
     1
 71
     0
 91
        1
 92
        2
 72
     1
 73
     1
 93
        2
 10
248.3902829339623
 20
-126.8428749298454
 42
0.9999999999999756
 10
245.5902829339623
 20
-126.8428749298454
 42
0.9999999999999756
 97
        0
 75
     0
 76
     1
 98
        0
  0
HATCH
  5
1F6
330
1E2
100
AcDbEntity
  8
FREI LASSEN
  6
AUSGEZOGEN
 62
    18
420
        0
370
    18
100
AcDbHatch
 10
0.0
 20
0.0
 30
0.0
210
0.0
220
0.0
230
1.0
  2
SOLID
 70
     1
 71
     0
 91
        1
 92
        2
 72
     1
 73
     1
 93
        2
 10
354.7607975442215
 20
-126.9013245530279
 42
1.000000000000016
 10
351.9607975442216
 20
-126.9013245530279
 42
1.000000000000016
 97
        0
 75
     0
 76
     1
 98
        0
  0
ENDBLK
  5
1E4
330
1E2
100
AcDbEntity
  8
0
100
AcDbBlockEnd
  0
BLOCK
  5
1F9
330
1F8
100
AcDbEntity
  8
0
100
AcDbBlockBegin
  2
*D12
 70
     1
 10
0.0
 20
0.0
 30
0.0
  3
*D12
  1

  0
HATCH
  5
1FB
330
1F8
100
AcDbEntity
  8
Frei
  6
AUSGEZOGEN
 62
     7
370
    25
100
AcDbHatch
 10
0.0
 20
0.0
 30
0.0
210
0.0
220
0.0
230
1.0
  2
SOLID
 70
     1
 71
     0
 91
        1
 92
        2
 72
     0
 73
     1
 93
        3
 10
136.345932006836
 20
524.019512759794
 10
130.345932006836
 20
525.219512759794
 10
130.345932006836
 20
522.819512759794
 97
        0
 75
     0
 76
     1
 98
        0
  0
HATCH
  5
1FC
330
1F8
100
AcDbEntity
  8
Frei
  6
AUSGEZOGEN
 62
     7
370
    25
100
AcDbHatch
 10
0.0
 20
0.0
 30
0.0
210
0.0
220
0.0
230
1.0
  2
SOLID
 70
     1
 71
     0
 91
        1
 92
        2
 72
     0
 73
     1
 93
        3
 10
47.345932006836
 20
524.019512759794
 10
53.345932006836
 20
522.819512759794
 10
53.345932006836
 20
525.219512759794
 97
        0
 75
     0
 76
     1
 98
        0
  0
LINE
  5
1FD
330
1F8
100
AcDbEntity
  8
Frei
  6
AUSGEZOGEN
 62
     7
370
    25
100
AcDbLine
 10
53.345932006836
 20
524.019512759794
 30
0.0
 11
130.345932006836
 21
524.019512759794
 31
0.0
  0
LINE
  5
1FE
330
1F8
100
AcDbEntity
  8
Frei
  6
AUSGEZOGEN
 62
     7
370
    18
100
AcDbLine
 10
47.345932006836
 20
489.3
 30
0.0
 11
47.345932006836
 21
528.305227045508
 31
0.0
  0
LINE
  5
1FF
330
1F8
100
AcDbEntity
  8
Frei
  6
AUSGEZOGEN
 62
     7
370
    18
100
AcDbLine
 10
136.345932006836
 20
489.3
 30
0.0
 11
136.345932006836
 21
528.305227045508
 31
0.0
  0
TEXT
  5
200
330
1F8
100
AcDbEntity
  8
Frei
  6
AUSGEZOGEN
 62
     7
370
    18
100
AcDbText
 10
79.253339624405
 20
526.819512759794
 30
0.0
 40
6.0
  1
%%c 88.9
 41
1.001797325571
  7
Arial
 72
     5
 11
104.438524389267
 21
526.819512759794
 31
0.0
100
AcDbText
  0
ENDBLK
  5
1FA
330
1F8
100
AcDbEntity
  8
0
100
AcDbBlockEnd
  0
BLOCK
  5
203
330
202
100
AcDbEntity
  8
0
100
AcDbBlockBegin
  2
*D13
 70
     1
 10
0.0
 20
0.0
 30
0.0
  3
*D13
  1

  0
HATCH
  5
205
330
202
100
AcDbEntity
  8
Frei
  6
AUSGEZOGEN
 62
     7
370
    25
100
AcDbHatch
 10
0.0
 20
0.0
 30
0.0
210
0.0
220
0.0
230
1.0
  2
SOLID
 70
     1
 71
     0
 91
        1
 92
        2
 72
     0
 73
     1
 93
        3
 10
161.745895385742
 20
213.3352751299518
 10
155.745895385742
 20
214.5352751299518
 10
155.745895385742
 20
212.1352751299518
 97
        0
 75
     0
 76
     1
 98
        0
  0
HATCH
  5
206
330
202
100
AcDbEntity
  8
Frei
  6
AUSGEZOGEN
 62
     7
370
    25
100
AcDbHatch
 10
0.0
 20
0.0
 30
0.0
210
0.0
220
0.0
230
1.0
  2
SOLID
 70
     1
 71
     0
 91
        1
 92
        2
 72
     0
 73
     1
 93
        3
 10
21.745908737183
 20
213.3352751299518
 10
27.745908737183
 20
212.1352751299518
 10
27.745908737183
 20
214.5352751299518
 97
        0
 75
     0
 76
     1
 98
        0
  0
LINE
  5
207
330
202
100
AcDbEntity
  8
Frei
  6
AUSGEZOGEN
 62
     7
370
    25
100
AcDbLine
 10
27.745908737183
 20
213.335275129952
 30
0.0
 11
155.745895385742
 21
213.335275129952
 31
0.0
  0
LINE
  5
208
330
202
100
AcDbEntity
  8
Frei
  6
AUSGEZOGEN
 62
     7
370
    18
100
AcDbLine
 10
21.745908737183
 20
188.228790283203
 30
0.0
 11
21.745908737183
 21
217.620989415666
 31
0.0
  0
LINE
  5
209
330
202
100
AcDbEntity
  8
Frei
  6
AUSGEZOGEN
 62
     7
370
    18
100
AcDbLine
 10
161.745895385742
 20
188.228790283203
 30
0.0
 11
161.745895385742
 21
217.620989415666
 31
0.0
  0
TEXT
  5
20A
330
202
100
AcDbEntity
  8
Frei
  6
AUSGEZOGEN
 62
     7
370
    18
100
AcDbText
 10
80.319976326227
 20
216.135275129952
 30
0.0
 40
6.0
  1
%%c 140
 41
1.001746952063
  7
Arial
 72
     5
 11
103.171827796698
 21
216.135275129952
 31
0.0
100
AcDbText
  0
ENDBLK
  5
204
330
202
100
AcDbEntity
  8
0
100
AcDbBlockEnd
  0
BLOCK
  5
20D
330
20C
100
AcDbEntity
  8
0
100
AcDbBlockBegin
  2
*D14
 70
     1
 10
0.0
 20
0.0
 30
0.0
  3
*D14
  1

  0
HATCH
  5
20F
330
20C
100
AcDbEntity
  8
Frei
  6
AUSGEZOGEN
 62
     7
370
    25
100
AcDbHatch
 10
0.0
 20
0.0
 30
0.0
210
0.0
220
0.0
230
1.0
  2
SOLID
 70
     1
 71
     0
 91
        1
 92
        2
 72
     0
 73
     1
 93
        3
 10
241.845932006836
 20
240.0
 10
235.845932006836
 20
241.2
 10
235.845932006836
 20
238.8
 97
        0
 75
     0
 76
     1
 98
        0
  0
HATCH
  5
210
330
20C
100
AcDbEntity
  8
Frei
  6
AUSGEZOGEN
 62
     7
370
    25
100
AcDbHatch
 10
0.0
 20
0.0
 30
0.0
210
0.0
220
0.0
230
1.0
  2
SOLID
 70
     1
 71
     0
 91
        1
 92
        2
 72
     0
 73
     1
 93
        3
 10
-58.154067993164
 20
240.0
 10
-52.154067993164
 20
238.8
 10
-52.154067993164
 20
241.2
 97
        0
 75
     0
 76
     1
 98
        0
  0
LINE
  5
211
330
20C
100
AcDbEntity
  8
Frei
  6
AUSGEZOGEN
 62
     7
370
    25
100
AcDbLine
 10
-52.154067993164
 20
240.0
 30
0.0
 11
235.845932006836
 21
240.0
 31
0.0
  0
LINE
  5
212
330
20C
100
AcDbEntity
  8
Frei
  6
AUSGEZOGEN
 62
     7
370
    18
100
AcDbLine
 10
-58.154067993164
 20
163.228790283203
 30
0.0
 11
-58.154067993164
 21
244.285714285714
 31
0.0
  0
LINE
  5
213
330
20C
100
AcDbEntity
  8
Frei
  6
AUSGEZOGEN
 62
     7
370
    18
100
AcDbLine
 10
241.845932006836
 20
163.228790283203
 30
0.0
 11
241.845932006836
 21
244.285714285714
 31
0.0
  0
TEXT
  5
214
330
20C
100
AcDbEntity
  8
Frei
  6
AUSGEZOGEN
 62
     7
370
    18
100
AcDbText
 10
73.420006388426
 20
242.8
 30
0.0
 40
6.0
  1
300 x 300
 41
1.001953540968
  7
Arial
 72
     5
 11
110.271857625246
 21
242.8
 31
0.0
100
AcDbText
  0
ENDBLK
  5
20E
330
20C
100
AcDbEntity
  8
0
100
AcDbBlockEnd
  0
BLOCK
  5
217
330
216
100
AcDbEntity
  8
0
100
AcDbBlockBegin
  2
*D15
 70
     1
 10
0.0
 20
0.0
 30
0.0
  3
*D15
  1

  0
HATCH
  5
219
330
216
100
AcDbEntity
  8
Frei
  6
AUSGEZOGEN
 62
     7
370
    25
100
AcDbHatch
 10
0.0
 20
0.0
 30
0.0
210
0.0
220
0.0
230
1.0
  2
SOLID
 70
     1
 71
     0
 91
        1
 92
        2
 72
     0
 73
     1
 93
        3
 10
148.845932006836
 20
-105.1582987141707
 10
142.845932006836
 20
-103.9582987141707
 10
142.845932006836
 20
-106.3582987141707
 97
        0
 75
     0
 76
     1
 98
        0
  0
HATCH
  5
21A
330
216
100
AcDbEntity
  8
Frei
  6
AUSGEZOGEN
 62
     7
370
    25
100
AcDbHatch
 10
0.0
 20
0.0
 30
0.0
210
0.0
220
0.0
230
1.0
  2
SOLID
 70
     1
 71
     0
 91
        1
 92
        2
 72
     0
 73
     1
 93
        3
 10
34.845932006836
 20
-105.1582987141707
 10
40.845932006836
 20
-106.3582987141707
 10
40.845932006836
 20
-103.9582987141707
 97
        0
 75
     0
 76
     1
 98
        0
  0
LINE
  5
21B
330
216
100
AcDbEntity
  8
Frei
  6
AUSGEZOGEN
 62
     7
370
    25
100
AcDbLine
 10
40.845932006836
 20
-105.158298714171
 30
0.0
 11
142.845932006836
 21
-105.158298714171
 31
0.0
  0
LINE
  5
21C
330
216
100
AcDbEntity
  8
Frei
  6
AUSGEZOGEN
 62
     7
370
    18
100
AcDbLine
 10
34.845932006836
 20
-79.792343139648
 30
0.0
 11
34.845932006836
 21
-109.444012999885
 31
0.0
  0
LINE
  5
21D
330
216
100
AcDbEntity
  8
Frei
  6
AUSGEZOGEN
 62
     7
370
    18
100
AcDbLine
 10
148.845932006836
 20
-79.792343139648
 30
0.0
 11
148.845932006836
 21
-109.444012999885
 31
0.0
  0
TEXT
  5
21E
330
216
100
AcDbEntity
  8
Frei
  6
AUSGEZOGEN
 62
     7
370
    18
100
AcDbText
 10
76.740740795135
 20
-102.358298714171
 30
0.0
 40
6.0
  1
%%c
 41
1.000386496275
  7
Arial
 72
     5
 11
83.259259204864
 21
-102.358298714171
 31
0.0
100
AcDbText
  0
ENDBLK
  5
218
330
216
100
AcDbEntity
  8
0
100
AcDbBlockEnd
  0
BLOCK
  5
221
330
220
100
AcDbEntity
  8
0
100
AcDbBlockBegin
  2
*D16
 70
     1
 10
0.0
 20
0.0
 30
0.0
  3
*D16
  1

  0
HATCH
  5
223
330
220
100
AcDbEntity
  8
Frei
  6
AUSGEZOGEN
 62
     7
370
    25
100
AcDbHatch
 10
0.0
 20
0.0
 30
0.0
210
0.0
220
0.0
230
1.0
  2
SOLID
 70
     1
 71
     0
 91
        1
 92
        2
 72
     0
 73
     1
 93
        3
 10
201.795913696289
 20
-79.792343139648
 10
202.995913696289
 20
-73.792343139648
 10
200.595913696289
 20
-73.792343139648
 97
        0
 75
     0
 76
     1
 98
        0
  0
HATCH
  5
224
330
220
100
AcDbEntity
  8
Frei
  6
AUSGEZOGEN
 62
     7
370
    25
100
AcDbHatch
 10
0.0
 20
0.0
 30
0.0
210
0.0
220
0.0
230
1.0
  2
SOLID
 70
     1
 71
     0
 91
        1
 92
        2
 72
     0
 73
     1
 93
        3
 10
201.795913696289
 20
163.228790283203
 10
200.595913696289
 20
157.228790283203
 10
202.995913696289
 20
157.228790283203
 97
        0
 75
     0
 76
     1
 98
        0
  0
LINE
  5
225
330
220
100
AcDbEntity
  8
Frei
  6
AUSGEZOGEN
 62
     7
370
    25
100
AcDbLine
 10
201.795913696289
 20
157.228790283203
 30
0.0
 11
201.795913696289
 21
-73.792343139648
 31
0.0
  0
LINE
  5
226
330
220
100
AcDbEntity
  8
Frei
  6
AUSGEZOGEN
 62
     7
370
    18
100
AcDbLine
 10
202.0
 20
163.228790283203
 30
0.0
 11
197.510199410575
 21
163.228790283203
 31
0.0
  0
LINE
  5
227
330
220
100
AcDbEntity
  8
Frei
  6
AUSGEZOGEN
 62
     7
370
    18
100
AcDbLine
 10
150.011756576738
 20
-79.792343139648
 30
0.0
 11
206.081627982003
 21
-79.792343139648
 31
0.0
  0
TEXT
  5
228
330
220
100
AcDbEntity
  8
Frei
  6
AUSGEZOGEN
 62
     7
370
    18
100
AcDbText
 10
198.995913696289
 20
40.551556924582
 30
0.0
 40
6.0
  1
 
 50
90.0
 41
1.002290934017
  7
Arial
 72
     5
 11
198.995913696289
 21
42.884890218973
 31
0.0
100
AcDbText
  0
ENDBLK
  5
222
330
220
100
AcDbEntity
  8
0
100
AcDbBlockEnd
  0
ENDSEC
  0
SECTION
  2
ENTITIES
  0
INSERT
  5
7D
330
1F
100
AcDbEntity
  8
0
100
AcDbBlockReference
  2
VERSCHLU_nNn00
 10
0.0
 20
0.0
 30
0.0
  0
INSERT
  5
88
330
1F
100
AcDbEntity
  8
0
100
AcDbBlockReference
  2
VERSCHLU_nNn01
 10
0.0
 20
0.0
 30
0.0
  0
INSERT
  5
9F
330
1F
100
AcDbEntity
  8
0
100
AcDbBlockReference
  2
Verschlussteil_nNn02
 10
0.0
 20
0.0
 30
0.0
  0
LINE
  5
A0
330
1F
100
AcDbEntity
  8
Detail
  6
AUSGEZOGEN
 62
     7
370
    25
100
AcDbLine
 10
34.845932006836
 20
36.732683220367
 30
0.0
 11
34.845932006836
 21
170.228790283203
 31
0.0
  0
LINE
  5
A1
330
1F
100
AcDbEntity
  8
Detail
  6
AUSGEZOGEN
 62
     7
370
    25
100
AcDbLine
 10
34.845932006836
 20
-79.792343139648
 30
0.0
 11
34.845932006836
 21
30.290238590722
 31
0.0
  0
LINE
  5
A2
330
1F
100
AcDbEntity
  8
Detail
  6
AUSGEZOGEN
 62
     7
370
    25
100
AcDbLine
 10
148.845932006836
 20
66.038129371597
 30
0.0
 11
148.845932006836
 21
170.228790283203
 31
0.0
  0
LINE
  5
A3
330
1F
100
AcDbEntity
  8
Detail
  6
AUSGEZOGEN
 62
     7
370
    25
100
AcDbLine
 10
148.845932006836
 20
-79.792343139648
 30
0.0
 11
148.845932006836
 21
59.595684741952
 31
0.0
  0
LINE
  5
A4
330
1F
100
AcDbEntity
  8
Detail
  6
AUSGEZOGEN
 62
     7
370
    25
100
AcDbLine
 10
35.845932006836
 20
36.989748537483
 30
0.0
 11
35.845932006836
 21
167.228790283203
 31
0.0
  0
LINE
  5
A5
330
1F
100
AcDbEntity
  8
Detail
  6
AUSGEZOGEN
 62
     7
370
    25
100
AcDbLine
 10
35.845932006836
 20
-79.792343139648
 30
0.0
 11
35.845932006836
 21
30.547303907838
 31
0.0
  0
LINE
  5
A6
330
1F
100
AcDbEntity
  8
Detail
  6
AUSGEZOGEN
 62
     7
370
    25
100
AcDbLine
 10
147.845932006836
 20
65.781064054481
 30
0.0
 11
147.845932006836
 21
167.228790283203
 31
0.0
  0
LINE
  5
A7
330
1F
100
AcDbEntity
  8
Detail
  6
AUSGEZOGEN
 62
     7
370
    25
100
AcDbLine
 10
147.845932006836
 20
-79.792343139648
 30
0.0
 11
147.845932006836
 21
59.338619424836
 31
0.0
  0
LINE
  5
A8
330
1F
100
AcDbEntity
  8
Detail
  6
AUSGEZOGEN
 62
     7
370
    25
100
AcDbLine
 10
34.845932006836
 20
-79.792343139648
 30
0.0
 11
148.845932006836
 21
-79.792343139648
 31
0.0
  0
LINE
  5
A9
330
1F
100
AcDbEntity
  8
Detail
  6
AUSGEZOGEN
 62
     7
370
    25
100
AcDbLine
 10
154.445955276489
 20
170.228790283203
 30
0.0
 11
154.445955276489
 21
188.228790283203
 31
0.0
  0
LINE
  5
AA
330
1F
100
AcDbEntity
  8
Detail
  6
AUSGEZOGEN
 62
     7
370
    25
100
AcDbLine
 10
-58.154067993164
 20
161.228790283203
 30
0.0
 11
-58.154067993164
 21
163.228790283203
 31
0.0
  0
LINE
  5
AB
330
1F
100
AcDbEntity
  8
Detail
  6
AUSGEZOGEN
 62
     7
370
    25
100
AcDbLine
 10
241.845932006836
 20
161.228790283203
 30
0.0
 11
241.845932006836
 21
163.228790283203
 31
0.0
  0
LINE
  5
AC
330
1F
100
AcDbEntity
  8
Detail
  6
AUSGEZOGEN
 62
     7
370
    25
100
AcDbLine
 10
161.745895385742
 20
163.228790283203
 30
0.0
 11
241.845932006836
 21
163.228790283203
 31
0.0
  0
LINE
  5
AD
330
1F
100
AcDbEntity
  8
Detail
  6
AUSGEZOGEN
 62
     7
370
    25
100
AcDbLine
 10
21.745908737183
 20
163.228790283203
 30
0.0
 11
-58.154067993164
 21
163.228790283203
 31
0.0
  0
LINE
  5
AE
330
1F
100
AcDbEntity
  8
Detail
  6
AUSGEZOGEN
 62
     7
370
    25
100
AcDbLine
 10
28.845932006836
 20
161.228790283203
 30
0.0
 11
-58.154067993164
 21
161.228790283203
 31
0.0
  0
LINE
  5
AF
330
1F
100
AcDbEntity
  8
Detail
  6
AUSGEZOGEN
 62
     7
370
    25
100
AcDbLine
 10
154.845932006836
 20
161.228790283203
 30
0.0
 11
241.845932006836
 21
161.228790283203
 31
0.0
  0
LINE
  5
B0
330
1F
100
AcDbEntity
  8
Detail
  6
AUSGEZOGEN
 62
     7
370
    25
100
AcDbLine
 10
47.345932006836
 20
489.3
 30
0.0
 11
136.345932006836
 21
489.3
 31
0.0
  0
LINE
  5
B1
330
1F
100
AcDbEntity
  8
Detail
  6
AUSGEZOGEN
 62
     7
370
    25
100
AcDbLine
 10
47.345932006836
 20
380.18470933385
 30
0.0
 11
47.345932006836
 21
489.3
 31
0.0
  0
LINE
  5
B2
330
1F
100
AcDbEntity
  8
Detail
  6
AUSGEZOGEN
 62
     7
370
    25
100
AcDbLine
 10
47.345932006836
 20
289.3
 30
0.0
 11
47.345932006836
 21
374.190598504089
 31
0.0
  0
LINE
  5
B3
330
1F
100
AcDbEntity
  8
Detail
  6
AUSGEZOGEN
 62
     7
370
    25
100
AcDbLine
 10
136.345932006836
 20
400.437621266144
 30
0.0
 11
136.345932006836
 21
489.3
 31
0.0
  0
LINE
  5
B4
330
1F
100
AcDbEntity
  8
Detail
  6
AUSGEZOGEN
 62
     7
370
    25
100
AcDbLine
 10
136.345932006836
 20
289.3
 30
0.0
 11
136.345932006836
 21
394.443510436382
 31
0.0
  0
LINE
  5
B5
330
1F
100
AcDbEntity
  8
Detail
  6
AUSGEZOGEN
 62
     7
370
    25
100
AcDbLine
 10
48.845932006836
 20
380.526050546192
 30
0.0
 11
48.845932006836
 21
489.3
 31
0.0
  0
LINE
  5
B6
330
1F
100
AcDbEntity
  8
Detail
  6
AUSGEZOGEN
 62
     7
370
    25
100
AcDbLine
 10
48.845932006836
 20
277.0
 30
0.0
 11
48.845932006836
 21
374.531939716431
 31
0.0
  0
LINE
  5
B7
330
1F
100
AcDbEntity
  8
Detail
  6
AUSGEZOGEN
 62
     7
370
    25
100
AcDbLine
 10
134.845932006836
 20
400.096280053802
 30
0.0
 11
134.845932006836
 21
489.3
 31
0.0
  0
LINE
  5
B8
330
1F
100
AcDbEntity
  8
Detail
  6
AUSGEZOGEN
 62
     7
370
    25
100
AcDbLine
 10
134.845932006836
 20
277.0
 30
0.0
 11
134.845932006836
 21
394.10216922404
 31
0.0
  0
CIRCLE
  5
B9
330
1F
100
AcDbEntity
  8
Detail
  6
AUSGEZOGEN
 62
     7
370
    25
100
AcDbCircle
 10
33.830915820028
 20
280.667132434052
 30
0.0
 40
5.125
  0
CIRCLE
  5
BA
330
1F
100
AcDbEntity
  8
Detail
  6
AUSGEZOGEN
 62
     7
370
    25
100
AcDbCircle
 10
149.860948193644
 20
280.667132434052
 30
0.0
 40
5.125
  0
LINE
  5
BB
330
1F
100
AcDbEntity
  8
Detail
  6
AUSGEZOGEN
 62
     7
370
    25
100
AcDbLine
 10
14.643457588943
 20
31.539327727603
 30
0.0
 11
167.556729896417
 21
70.848026564577
 31
0.0
  0
LINE
  5
BC
330
1F
100
AcDbEntity
  8
Detail
  6
AUSGEZOGEN
 62
     7
370
    25
100
AcDbLine
 10
16.196929249622
 20
25.496226783041
 30
0.0
 11
169.110201557096
 21
64.804925620015
 31
0.0
  0
LINE
  5
BD
330
1F
100
AcDbEntity
  8
Detail
  6
AUSGEZOGEN
 62
     7
370
    25
100
AcDbLine
 10
33.833068136661
 20
371.115600280316
 30
0.0
 11
150.995388231466
 21
397.77715253496
 31
0.0
  0
LINE
  5
BE
330
1F
100
AcDbEntity
  8
Detail
  6
AUSGEZOGEN
 62
     7
370
    25
100
AcDbLine
 10
32.536200332141
 20
376.814594824317
 30
0.0
 11
149.698520426946
 21
403.47614707896
 31
0.0
  0
HATCH
  5
BF
330
1F
100
AcDbEntity
  8
Schraffur
  6
AUSGEZOGEN
 62
     7
370
    25
100
AcDbHatch
 10
0.0
 20
0.0
 30
0.0
210
0.0
220
0.0
230
1.0
  2
SOLID
 70
     1
 71
     0
 91
        1
 92
        2
 72
     0
 73
     1
 93
        4
 10
35.84593200683594
 20
30.54730390783836
 10
34.84593200683594
 20
30.29023859072231
 10
34.84593200683594
 20
-79.79234313964844
 10
35.84593200683594
 20
-79.79234313964844
 97
        0
 75
     0
 76
     1
 98
        0
  0
HATCH
  5
C0
330
1F
100
AcDbEntity
  8
Schraffur
  6
AUSGEZOGEN
 62
     7
370
    25
100
AcDbHatch
 10
0.0
 20
0.0
 30
0.0
210
0.0
220
0.0
230
1.0
  2
SOLID
 70
     1
 71
     0
 91
        1
 92
        2
 72
     0
 73
     1
 93
        4
 10
148.8459320068359
 20
59.59568474195243
 10
147.8459320068359
 20
59.33861942483637
 10
147.8459320068359
 20
-79.79234313964844
 10
148.8459320068359
 20
-79.79234313964844
 97
        0
 75
     0
 76
     1
 98
        0
  0
DIMENSION
  5
CA
330
1F
100
AcDbEntity
  8
Vermassung
  6
AUSGEZOGEN
 62
     7
370
    25
100
AcDbDimension
280
     0
  2
*D4
 10
202.0
 20
163.228790283203
 30
0.0
 11
196.2
 21
175.728790283203
 31
0.0
 70
   160
  1
25
 71
     5
 42
-1.0
 73
     0
 74
     0
 75
     0
 53
90.0
  3
ISO-25
100
AcDbAlignedDimension
 13
161.745895385742
 23
188.228790283203
 33
0.0
 14
161.745895385742
 24
163.228790283203
 34
0.0
 50
-90.0
100
AcDbRotatedDimension
1001
ACAD
1000
DSTYLE
1002
{
1070
    44
1040
4.285714285714
1070
   280
1070
     0
1070
    77
1070
     1
1070
   179
1070
     1
1070
   271
1070
     1
1070
   173
1070
     1
1070
    41
1040
6.0
1070
   147
1040
0.857142857143
1070
   140
1040
6.0
1070
   178
1070
     7
1070
   177
1070
     7
1070
   176
1070
     7
1002
}
  0
HATCH
  5
CB
330
1F
100
AcDbEntity
  8
Vermassung
  6
AUSGEZOGEN
 62
     7
370
    25
100
AcDbHatch
 10
0.0
 20
0.0
 30
0.0
210
0.0
220
0.0
230
1.0
  2
SOLID
 70
     1
 71
     0
 91
        1
 92
        2
 72
     1
 73
     1
 93
        2
 10
38.9209320068359
 20
280.069336299876
 42
0.0
 10
38.92093200683594
 20
281.264928568228
 42
17.08779231382601
 97
        0
 75
     0
 76
     1
 98
        0
  0
HATCH
  5
CC
330
1F
100
AcDbEntity
  8
Vermassung
  6
AUSGEZOGEN
 62
     7
370
    25
100
AcDbHatch
 10
0.0
 20
0.0
 30
0.0
210
0.0
220
0.0
230
1.0
  2
SOLID
 70
     1
 71
     0
 91
        1
 92
        2
 72
     1
 73
     1
 93
        2
 10
144.770932006836
 20
280.069336299876
 42
0.0
 10
144.770932006836
 20
281.2649285682279
 42
-17.08779231382763
 97
        0
 75
     0
 76
     1
 98
        0
  0
INSERT
  5
F8
330
1F
100
AcDbEntity
  8
0
100
AcDbBlockReference
  2
Lochrost 109 rund_nNn04
 10
0.0
 20
0.0
 30
0.0
  0
INSERT
  5
197
330
1F
100
AcDbEntity
  8
0
100
AcDbBlockReference
  2
Verschluss standrohr_nNn05
 10
0.0
 20
0.0
 30
0.0
  0
HATCH
  5
198
330
1F
100
AcDbEntity
  8
Schraffur
  6
AUSGEZOGEN
 62
     7
370
    25
100
AcDbHatch
 10
0.0
 20
0.0
 30
0.0
210
0.0
220
0.0
230
1.0
  2
SOLID
 70
     1
 71
     0
 91
        1
 92
        2
 72
     1
 73
     1
 93
        2
 10
266.5201034545898
 20
359.6929511680282
 42
1.0
 10
256.5201034545898
 20
359.6929511680282
 42
1.0
 97
        0
 75
     0
 76
     1
 98
        0
  0
HATCH
  5
199
330
1F
100
AcDbEntity
  8
Schraffur
  6
AUSGEZOGEN
 62
     7
370
    25
100
AcDbHatch
 10
0.0
 20
0.0
 30
0.0
210
0.0
220
0.0
230
1.0
  2
SOLID
 70
     1
 71
     0
 91
        1
 92
        2
 72
     1
 73
     1
 93
        2
 10
381.5201110839844
 20
359.6929511680282
 42
1.0
 10
371.5201110839844
 20
359.6929511680282
 42
1.0
 97
        0
 75
     0
 76
     1
 98
        0
  0
DIMENSION
  5
1A3
330
1F
100
AcDbEntity
  8
Vermassung
  6
AUSGEZOGEN
 62
     7
370
    25
100
AcDbDimension
280
     0
  2
*D7
 10
392.999998092651
 20
123.010351822022
 30
0.0
 11
331.0
 21
128.810351822022
 31
0.0
 70
   160
  1
%%c124
 71
     5
 42
-1.0
 73
     0
 74
     0
 75
     0
  3
ISO-25
100
AcDbAlignedDimension
 13
269.000001907349
 23
34.010351822022
 33
0.0
 14
392.999998092651
 24
34.010351822022
 34
0.0
100
AcDbRotatedDimension
1001
ACAD
1000
DSTYLE
1002
{
1070
    44
1040
4.285714285714
1070
   280
1070
     0
1070
    77
1070
     1
1070
   179
1070
     1
1070
   271
1070
     1
1070
   173
1070
     1
1070
    41
1040
6.0
1070
   147
1040
0.857142857143
1070
   140
1040
6.0
1070
   178
1070
     7
1070
   177
1070
     7
1070
   176
1070
     7
1002
}
  0
DIMENSION
  5
1AE
330
1F
100
AcDbEntity
  8
Vermassung
  6
AUSGEZOGEN
 62
     7
370
    25
100
AcDbDimension
280
     0
  2
*D8
 10
-66.742625446064
 20
161.228790283203
 30
0.0
 11
-76.122548233296
 21
161.228790283203
 31
0.0
 70
   160
  1
2
 71
     5
 42
-1.0
 73
     0
 74
     0
 75
     0
 53
90.0
  3
ISO-25
100
AcDbAlignedDimension
 13
-58.154067993164
 23
163.228790283203
 33
0.0
 14
-58.154067993164
 24
161.228790283203
 34
0.0
 50
-90.0
100
AcDbRotatedDimension
1001
ACAD
1000
DSTYLE
1002
{
1070
    44
1040
4.285714285714
1070
   280
1070
     0
1070
    77
1070
     1
1070
   179
1070
     1
1070
   271
1070
     1
1070
   173
1070
     1
1070
    41
1040
6.0
1070
   147
1040
0.857142857143
1070
   140
1040
6.0
1070
   178
1070
     7
1070
   177
1070
     7
1070
   176
1070
     7
1002
}
  0
HATCH
  5
1AF
330
1F
100
AcDbEntity
  8
Schraffur
  6
AUSGEZOGEN
 62
     7
370
    25
100
AcDbHatch
 10
0.0
 20
0.0
 30
0.0
210
0.0
220
0.0
230
1.0
  2
MegaCAD_TYP1
 70
     0
 71
     0
 91
        1
 92
        2
 72
     0
 73
     1
 93
        8
 10
47.34593200683597
 20
289.3000000000002
 10
29.49593200683597
 20
289.3000000000002
 10
29.49593200683591
 20
285.8000000000001
 10
38.92093200683594
 20
285.8000000000001
 10
38.92093200683594
 20
275.5000000000001
 10
29.49593200683597
 20
275.5000000000001
 10
29.49593200683593
 20
272.0000000000001
 10
47.34593200683597
 20
272.0000000000002
 97
        0
 75
     0
 76
     1
 52
180.0
 41
0.4
 77
     0
 78
     1
 53
225.0
 43
0.0
 44
0.0
 45
0.848528137423857
 46
-0.8485281374238571
 79
     0
 98
        0
  0
HATCH
  5
1B0
330
1F
100
AcDbEntity
  8
Schraffur
  6
AUSGEZOGEN
 62
     7
370
    25
100
AcDbHatch
 10
0.0
 20
0.0
 30
0.0
210
0.0
220
0.0
230
1.0
  2
MegaCAD_TYP1
 70
     0
 71
     0
 91
        1
 92
        2
 72
     0
 73
     1
 93
        8
 10
144.7709320068361
 20
285.8000000000003
 10
154.195932006836
 20
285.8000000000002
 10
154.195932006836
 20
289.3000000000003
 10
136.345932006836
 20
289.3000000000002
 10
136.345932006836
 20
272.0000000000001
 10
154.195932006836
 20
272.0000000000002
 10
154.195932006836
 20
275.5000000000001
 10
144.7709320068359
 20
275.5
 97
        0
 75
     0
 76
     1
 52
180.0
 41
0.4
 77
     0
 78
     1
 53
225.0
 43
0.0
 44
0.0
 45
0.848528137423857
 46
-0.8485281374238571
 79
     0
 98
        0
  0
HATCH
  5
1B1
330
1F
100
AcDbEntity
  8
Schraffur
  6
AUSGEZOGEN
 62
     7
370
    25
100
AcDbHatch
 10
0.0
 20
0.0
 30
0.0
210
0.0
220
0.0
230
1.0
  2
MegaCAD_TYP1
 70
     0
 71
     0
 91
        1
 92
        2
 72
     0
 73
     1
 93
        6
 10
161.7458953857422
 20
188.2287902832032
 10
154.4459552764893
 20
188.2287902832032
 10
154.4459552764893
 20
170.2287902832032
 10
148.845932006836
 20
170.2287902832032
 10
148.845932006836
 20
163.2287902832032
 10
161.7458953857422
 20
163.2287902832031
 97
        0
 75
     0
 76
     1
 52
180.0
 41
0.4
 77
     0
 78
     1
 53
225.0
 43
0.0
 44
0.0
 45
0.848528137423857
 46
-0.8485281374238571
 79
     0
 98
        0
  0
HATCH
  5
1B2
330
1F
100
AcDbEntity
  8
Schraffur
  6
AUSGEZOGEN
 62
     7
370
    25
100
AcDbHatch
 10
0.0
 20
0.0
 30
0.0
210
0.0
220
0.0
230
1.0
  2
MegaCAD_TYP1
 70
     0
 71
     0
 91
        1
 92
        2
 72
     0
 73
     1
 93
        6
 10
29.24590873718262
 20
188.2287902832031
 10
21.74590873718265
 20
188.2287902832031
 10
21.74590873718262
 20
163.2287902832032
 10
34.84593200683594
 20
163.2287902832032
 10
34.84593200683594
 20
170.2287902832031
 10
29.24590873718263
 20
170.2287902832032
 97
        0
 75
     0
 76
     1
 52
180.0
 41
0.4
 77
     0
 78
     1
 53
225.0
 43
0.0
 44
0.0
 45
0.848528137423857
 46
-0.8485281374238571
 79
     0
 98
        0
  0
HATCH
  5
1B3
330
1F
100
AcDbEntity
  8
Schraffur
  6
AUSGEZOGEN
 62
     7
370
    25
100
AcDbHatch
 10
0.0
 20
0.0
 30
0.0
210
0.0
220
0.0
230
1.0
  2
MegaCAD_TYP1
 70
     0
 71
     0
 91
        2
 92
        2
 72
     0
 73
     1
 93
        5
 10
312.5355773902833
 20
373.861213565864
 10
312.5355773902834
 20
375.8612135658641
 10
312.0355773902833
 20
376.361213565864
 10
256.9355789161622
 20
376.361213565864
 10
256.9355789161623
 20
373.8612135658641
 97
        0
 92
        2
 72
     0
 73
     1
 93
        6
 10
267.1855789161622
 20
373.861213565864
 10
267.1855789161623
 20
366.3612135658642
 10
314.9355789161623
 20
366.3612135658642
 10
314.9355789161622
 20
368.3612135658641
 10
312.5355773902834
 20
368.3612135658641
 10
312.5355773902833
 20
373.861213565864
 97
        0
 75
     0
 76
     1
 52
180.0
 41
0.4
 77
     0
 78
     1
 53
225.0
 43
0.0
 44
0.0
 45
0.848528137423857
 46
-0.8485281374238571
 79
     0
 98
        0
  0
HATCH
  5
1B4
330
1F
100
AcDbEntity
  8
Schraffur
  6
AUSGEZOGEN
 62
     7
370
    25
100
AcDbHatch
 10
0.0
 20
0.0
 30
0.0
210
0.0
220
0.0
230
1.0
  2
MegaCAD_TYP1
 70
     0
 71
     0
 91
        1
 92
        2
 72
     0
 73
     1
 93
       13
 10
257.0850658416749
 20
352.9995104007602
 10
257.0850658416749
 20
347.9995256595494
 10
315.0948181152344
 20
347.9995256595493
 10
316.0850601196291
 20
348.6027208499791
 10
315.0850601196291
 20
349.0036913089635
 10
316.085060119629
 20
349.6078478031041
 10
315.0850601196291
 20
350.0088182620885
 10
316.0850601196291
 20
350.6130052738072
 10
315.085060119629
 20
351.0139757327916
 10
316.0850601196291
 20
351.6181627445104
 10
315.085060119629
 20
352.0191332034947
 10
316.0850601196292
 20
352.6233202152135
 10
315.0850601196291
 20
352.9995104007604
 97
        0
 75
     0
 76
     1
 52
180.0
 41
0.4
 77
     0
 78
     1
 53
225.0
 43
0.0
 44
0.0
 45
0.848528137423857
 46
-0.8485281374238571
 79
     0
 98
        0
  0
HATCH
  5
1B5
330
1F
100
AcDbEntity
  8
Schraffur
  6
AUSGEZOGEN
 62
     7
370
    25
100
AcDbHatch
 10
0.0
 20
0.0
 30
0.0
210
0.0
220
0.0
230
1.0
  2
MegaCAD_TYP1
 70
     0
 71
     0
 91
        1
 92
        2
 72
     0
 73
     1
 93
       14
 10
381.0850677490237
 20
347.9995256595494
 10
381.0850677490237
 20
352.9995104007602
 10
322.5305480957032
 20
352.9995104007603
 10
322.0850601196291
 20
352.7303758792759
 10
323.085060119629
 20
352.3294054202916
 10
322.085060119629
 20
351.7252184085728
 10
323.0850601196291
 20
351.3242479495884
 10
322.0850601196291
 20
350.7200609378697
 10
323.0850601196291
 20
350.3190904788852
 10
322.0850601196291
 20
349.7149034671666
 10
323.0850601196291
 20
349.3139330081822
 10
322.085060119629
 20
348.7097765140415
 10
323.0850601196292
 20
348.3088060550572
 10
322.5731735229493
 20
347.9995256595494
 97
        0
 75
     0
 76
     1
 52
180.0
 41
0.4
 77
     0
 78
     1
 53
225.0
 43
0.0
 44
0.0
 45
0.848528137423857
 46
-0.8485281374238571
 79
     0
 98
        0
  0
HATCH
  5
1B6
330
1F
100
AcDbEntity
  8
Schraffur
  6
AUSGEZOGEN
 62
     7
370
    25
100
AcDbHatch
 10
0.0
 20
0.0
 30
0.0
210
0.0
220
0.0
230
1.0
  2
MegaCAD_TYP1
 70
     0
 71
     0
 91
        2
 92
        2
 72
     0
 73
     1
 93
        5
 10
326.3355804420412
 20
376.3612135658641
 10
325.8355804420412
 20
375.8612135658642
 10
325.8355804420412
 20
373.8612135658642
 10
381.4355789161624
 20
373.8612135658643
 10
381.4355789161623
 20
376.3612135658641
 97
        0
 92
        2
 72
     0
 73
     1
 93
        6
 10
325.8355804420412
 20
373.8612135658642
 10
325.8355804420411
 20
368.3612135658641
 10
323.4355789161623
 20
368.3612135658641
 10
323.4355789161624
 20
366.3612135658641
 10
371.1855789161623
 20
366.3612135658643
 10
371.1855789161622
 20
373.8612135658641
 97
        0
 75
     0
 76
     1
 52
180.0
 41
0.4
 77
     0
 78
     1
 53
225.0
 43
0.0
 44
0.0
 45
0.848528137423857
 46
-0.8485281374238571
 79
     0
 98
        0
  0
TEXT
  5
1B7
330
1F
100
AcDbEntity
  8
Text
  6
AUSGEZOGEN
 62
     7
370
    25
100
AcDbText
 10
305.0
 20
-57.989648177978
 30
0.0
 40
8.0
  1
- Mat. Stärke 4mm
 41
0.991031783902
  7
Arial
 72
     5
 11
396.016359033531
 21
-57.989648177978
 31
0.0
100
AcDbText
  0
TEXT
  5
1B8
330
1F
100
AcDbEntity
  8
Text
  6
AUSGEZOGEN
 62
     7
370
    25
100
AcDbText
 10
253.0
 20
-57.989648177978
 30
0.0
 40
8.0
  1
Lochrost:
 41
0.968790545926
  7
Arial
 72
     5
 11
297.494612193285
 21
-57.989648177978
 31
0.0
100
AcDbText
  0
TEXT
  5
1B9
330
1F
100
AcDbEntity
  8
Text
  6
AUSGEZOGEN
 62
     7
370
    25
100
AcDbText
 10
305.0
 20
-71.989648177978
 30
0.0
 40
8.0
  1
- erhöht auf 18mm
 41
0.992218388689
  7
Arial
 72
     5
 11
395.522068036842
 21
-71.989648177978
 31
0.0
100
AcDbText
  0
LINE
  5
1BA
330
1F
100
AcDbEntity
  8
Text
  6
AUSGEZOGEN
 62
     7
370
    25
100
AcDbLine
 10
236.0
 20
455.0
 30
0.0
 11
388.0
 21
455.0
 31
0.0
  0
DIMENSION
  5
1C4
330
1F
100
AcDbEntity
  8
Text
  6
AUSGEZOGEN
 62
     7
370
    25
100
AcDbDimension
280
     0
  2
*D9
 10
199.487048848867
 20
289.3
 30
0.0
 11
193.687048848867
 21
389.3
 31
0.0
 70
   160
  1
 
 71
     5
 42
-1.0
 73
     0
 74
     0
 75
     0
 53
90.0
  3
ISO-25
100
AcDbAlignedDimension
 13
136.345932006836
 23
489.3
 33
0.0
 14
154.195932006836
 24
289.3
 34
0.0
 50
-90.0
100
AcDbRotatedDimension
1001
ACAD
1000
DSTYLE
1002
{
1070
    44
1040
4.285714285714
1070
   280
1070
     0
1070
    77
1070
     1
1070
   179
1070
     1
1070
   271
1070
     1
1070
   173
1070
     1
1070
    41
1040
6.0
1070
   147
1040
0.857142857143
1070
   140
1040
6.0
1070
   178
1070
     7
1070
   177
1070
     7
1070
   176
1070
     7
1002
}
  0
LINE
  5
1C5
330
1F
100
AcDbEntity
  8
Detail
  6
AUSGEZOGEN
 62
     7
370
    25
100
AcDbLine
 10
34.845932006836
 20
167.228790283203
 30
0.0
 11
148.845932006836
 21
167.228790283203
 31
0.0
  0
HATCH
  5
1C6
330
1F
100
AcDbEntity
  8
Schraffur
  6
AUSGEZOGEN
 62
     7
370
    25
100
AcDbHatch
 10
0.0
 20
0.0
 30
0.0
210
0.0
220
0.0
230
1.0
  2
SOLID
 70
     1
 71
     0
 91
        1
 92
        2
 72
     0
 73
     1
 93
        4
 10
35.84593200683594
 20
167.2287902832031
 10
34.84593200683594
 20
167.2287902832031
 10
34.84593200683594
 20
36.73268322036728
 10
35.84593200683594
 20
36.98974853748332
 97
        0
 75
     0
 76
     1
 98
        0
  0
HATCH
  5
1C7
330
1F
100
AcDbEntity
  8
Schraffur
  6
AUSGEZOGEN
 62
     7
370
    25
100
AcDbHatch
 10
0.0
 20
0.0
 30
0.0
210
0.0
220
0.0
230
1.0
  2
SOLID
 70
     1
 71
     0
 91
        1
 92
        2
 72
     0
 73
     1
 93
        4
 10
147.8459320068359
 20
65.78106405448133
 10
148.8459320068359
 20
66.03812937159739
 10
148.8459320068359
 20
167.2287902832031
 10
147.8459320068359
 20
167.2287902832031
 97
        0
 75
     0
 76
     1
 98
        0
  0
LINE
  5
1C8
330
1F
100
AcDbEntity
  8
Detail
  6
AUSGEZOGEN
 62
     7
370
    25
100
AcDbLine
 10
47.345932006836
 20
277.0
 30
0.0
 11
136.345932006836
 21
277.0
 31
0.0
  0
HATCH
  5
1C9
330
1F
100
AcDbEntity
  8
Schraffur
  6
AUSGEZOGEN
 62
     7
370
    25
100
AcDbHatch
 10
0.0
 20
0.0
 30
0.0
210
0.0
220
0.0
230
1.0
  2
SOLID
 70
     1
 71
     0
 91
        1
 92
        2
 72
     0
 73
     1
 93
        4
 10
48.84593200683594
 20
489.3000000000001
 10
47.34593200683594
 20
489.3000000000001
 10
47.34593200683594
 20
380.1847093338502
 10
48.84593200683594
 20
380.5260505461922
 97
        0
 75
     0
 76
     1
 98
        0
  0
HATCH
  5
1CA
330
1F
100
AcDbEntity
  8
Schraffur
  6
AUSGEZOGEN
 62
     7
370
    25
100
AcDbHatch
 10
0.0
 20
0.0
 30
0.0
210
0.0
220
0.0
230
1.0
  2
SOLID
 70
     1
 71
     0
 91
        1
 92
        2
 72
     0
 73
     1
 93
        5
 10
48.84593200683594
 20
374.5319397164307
 10
47.34593200683594
 20
374.1905985040887
 10
47.34593200683594
 20
289.3000000000001
 10
47.34593200683594
 20
277.0000000000001
 10
48.84593200683594
 20
277.0000000000001
 97
        0
 75
     0
 76
     1
 98
        0
  0
HATCH
  5
1CB
330
1F
100
AcDbEntity
  8
Schraffur
  6
AUSGEZOGEN
 62
     7
370
    25
100
AcDbHatch
 10
0.0
 20
0.0
 30
0.0
210
0.0
220
0.0
230
1.0
  2
SOLID
 70
     1
 71
     0
 91
        1
 92
        2
 72
     0
 73
     1
 93
        5
 10
136.3459320068359
 20
394.4435104363822
 10
134.8459320068359
 20
394.1021692240402
 10
134.8459320068359
 20
277.0
 10
136.3459320068359
 20
277.0
 10
136.3459320068359
 20
289.3000000000001
 97
        0
 75
     0
 76
     1
 98
        0
  0
HATCH
  5
1CC
330
1F
100
AcDbEntity
  8
Schraffur
  6
AUSGEZOGEN
 62
     7
370
    25
100
AcDbHatch
 10
0.0
 20
0.0
 30
0.0
210
0.0
220
0.0
230
1.0
  2
SOLID
 70
     1
 71
     0
 91
        1
 92
        2
 72
     0
 73
     1
 93
        4
 10
136.3459320068359
 20
489.3000000000001
 10
134.8459320068359
 20
489.3000000000001
 10
134.8459320068359
 20
400.0962800538016
 10
136.3459320068359
 20
400.4376212661437
 97
        0
 75
     0
 76
     1
 98
        0
  0
LINE
  5
1CD
330
1F
100
AcDbEntity
  8
Detail
  6
AUSGEZOGEN
 62
     7
370
    25
100
AcDbLine
 10
28.845932006836
 20
161.228790283203
 30
0.0
 11
28.845932006836
 21
163.228790283203
 31
0.0
  0
LINE
  5
1CE
330
1F
100
AcDbEntity
  8
Detail
  6
AUSGEZOGEN
 62
     7
370
    25
100
AcDbLine
 10
154.845932006836
 20
161.228790283203
 30
0.0
 11
154.845932006836
 21
163.228790283203
 31
0.0
  0
HATCH
  5
1CF
330
1F
100
AcDbEntity
  8
Schraffur
  6
AUSGEZOGEN
 62
     7
370
    25
100
AcDbHatch
 10
0.0
 20
0.0
 30
0.0
210
0.0
220
0.0
230
1.0
  2
SOLID
 70
     1
 71
     0
 91
        1
 92
        2
 72
     0
 73
     1
 93
        5
 10
28.84593200683594
 20
161.2287902832031
 10
28.84593200683594
 20
163.2287902832031
 10
21.74590873718262
 20
163.2287902832031
 10
-58.15406799316406
 20
163.2287902832031
 10
-58.15406799316406
 20
161.2287902832031
 97
        0
 75
     0
 76
     1
 98
        0
  0
HATCH
  5
1D0
330
1F
100
AcDbEntity
  8
Schraffur
  6
AUSGEZOGEN
 62
     7
370
    25
100
AcDbHatch
 10
0.0
 20
0.0
 30
0.0
210
0.0
220
0.0
230
1.0
  2
SOLID
 70
     1
 71
     0
 91
        1
 92
        2
 72
     0
 73
     1
 93
        5
 10
161.7458953857422
 20
163.2287902832031
 10
154.8459320068359
 20
163.2287902832031
 10
154.8459320068359
 20
161.2287902832031
 10
241.8459320068359
 20
161.2287902832031
 10
241.8459320068359
 20
163.2287902832031
 97
        0
 75
     0
 76
     1
 98
        0
  0
WIPEOUT
  5
1D1
330
1F
100
AcDbEntity
  8
Text
  6
AUSGEZOGEN
 62
     7
370
    25
160
               152
310
98000000040000000C0000000E000000120000000C00000016000000000000C20C00000014000000010000006C000000070000000400000068E771F9E24336C0005BAE30DFD0824000000000000000006085D90DCC327640005BAE30DFD0824000000000000000006085D90DCC3276407A8FE1631284834000000000000000
310
0068E771F9E24336C07A8FE163128483400000000000000000
100
AcDbWipeout
 90
        0
 10
-22.265182104405
 20
602.108979570534
 30
0.0
 11
377.4399999999999
 21
0.0
 31
0.0
 12
0.0
 22
377.4399999999999
 32
0.0
 13
1.0
 23
1.0
340
0
 70
     7
280
     1
281
    50
282
    50
283
     0
360
0
 71
     2
 91
        5
 14
-0.5
 24
0.5
 14
0.5
 24
0.5
 14
0.5
 24
0.440652818991
 14
-0.5
 24
0.440652818991
 14
-0.5
 24
0.5
290
     0
  0
TEXT
  5
1D2
330
1F
100
AcDbEntity
  8
Text
  6
AUSGEZOGEN
 62
     7
370
    25
100
AcDbText
 10
-22.265182104405
 20
606.308979570534
 30
0.0
 40
14.0
  1
BE mit Standrohr und Oberteil
 41
1.432429418949
  7
Arial
 72
     5
 11
351.120464815435
 21
606.308979570534
 31
0.0
100
AcDbText
  0
WIPEOUT
  5
1D3
330
1F
100
AcDbEntity
  8
Text
  6
AUSGEZOGEN
 62
     7
370
    25
160
               152
310
98000000040000000C0000000E000000120000000C00000016000000000000C20C00000014000000010000006C000000070000000400000068E771F9E24336C0005B4EFDAB1D824000000000000000006085D90DCC327640005B4EFDAB1D824000000000000000006085D90DCC3276407A8F8130DFD0824000000000000000
310
0068E771F9E24336C07A8F8130DFD082400000000000000000
100
AcDbWipeout
 90
        0
 10
-22.265182104405
 20
579.708979236748
 30
0.0
 11
377.4399999999999
 21
0.0
 31
0.0
 12
0.0
 22
377.4399999999999
 32
0.0
 13
1.0
 23
1.0
340
0
 70
     7
280
     1
281
    50
282
    50
283
     0
360
0
 71
     2
 91
        5
 14
-0.5
 24
0.5
 14
0.5
 24
0.5
 14
0.5
 24
0.440652818991
 14
-0.5
 24
0.440652818991
 14
-0.5
 24
0.5
290
     0
  0
TEXT
  5
1D4
330
1F
100
AcDbEntity
  8
Text
  6
AUSGEZOGEN
 62
     7
370
    25
100
AcDbText
 10
-22.265182104405
 20
583.908979236748
 30
0.0
 40
14.0
  1
verschliessbar
 41
1.441865661887
  7
Arial
 72
     5
 11
157.795001752042
 21
583.908979236748
 31
0.0
100
AcDbText
  0
WIPEOUT
  5
1D5
330
1F
100
AcDbEntity
  8
Text
  6
AUSGEZOGEN
 62
     7
370
    25
160
               152
310
98000000040000000C0000000E000000120000000C00000016000000000000C20C00000014000000010000006C0000000700000004000000740A8B1ECBC534C0A924B80D8C7B81400000000000000000348A80E0EAC26940A924B80D8C7B81400000000000000000348A80E0EAC26940CB8D1E74F2E1814000000000000000
310
00740A8B1ECBC534C0CB8D1E74F2E181400000000000000000
100
AcDbWipeout
 90
        0
 10
-20.772630604692
 20
559.443385542506
 30
0.0
 11
226.8638021087646
 21
0.0
 31
0.0
 12
0.0
 22
226.8638021087646
 32
0.0
 13
1.0
 23
1.0
340
0
 70
     7
280
     1
281
    50
282
    50
283
     0
360
0
 71
     2
 91
        5
 14
-0.5
 24
0.5
 14
0.5
 24
0.5
 14
0.5
 24
0.443578482415
 14
-0.5
 24
0.443578482415
 14
-0.5
 24
0.5
290
     0
  0
TEXT
  5
1D6
330
1F
100
AcDbEntity
  8
Text
  6
AUSGEZOGEN
 62
     7
370
    25
100
AcDbText
 10
-20.772630604692
 20
561.843385542506
 30
0.0
 40
8.0
  1
Material: rostfreier Stahl 1.4404 (V4A) gebeizt und passiviert
 41
1.028163513474
  7
Arial
 72
     5
 11
286.15474143756
 21
561.843385542506
 31
0.0
100
AcDbText
  0
DIMENSION
  5
1E0
330
1F
100
AcDbEntity
  8
Vermassung
  6
AUSGEZOGEN
 62
     7
370
    25
100
AcDbDimension
280
     0
  2
*D10
 10
-8.825578305771
 20
163.228790283203
 30
0.0
 11
-16.6
 21
197.752617643571
 31
0.0
 70
   160
  1
nach Angabe
 71
     5
 42
-1.0
 73
     0
 74
     0
 75
     0
 53
90.0
  3
ISO-25
100
AcDbAlignedDimension
 13
21.745908737183
 23
188.228790283203
 33
0.0
 14
21.745908737183
 24
163.228790283203
 34
0.0
 50
-90.0
100
AcDbRotatedDimension
1001
ACAD
1000
DSTYLE
1002
{
1070
    44
1040
4.285714285714
1070
   280
1070
     0
1070
    77
1070
     1
1070
   179
1070
     1
1070
   271
1070
     1
1070
   173
1070
     1
1070
    41
1040
6.0
1070
   147
1040
0.857142857143
1070
   140
1040
6.0
1070
   178
1070
     7
1070
   177
1070
     7
1070
   176
1070
     7
1002
}
  0
LINE
  5
1E1
330
1F
100
AcDbEntity
  8
Vermassung
  6
AUSGEZOGEN
 62
     7
370
    35
100
AcDbLine
 10
-21.0
 20
577.0
 30
0.0
 11
356.150658691298
 21
577.0
 31
0.0
  0
INSERT
  5
1F7
330
1F
100
AcDbEntity
  8
0
100
AcDbBlockReference
  2
A4 Senkrecht neutral_nNn010
 10
0.0
 20
0.0
 30
0.0
  0
DIMENSION
  5
201
330
1F
100
AcDbEntity
  8
Frei
  6
AUSGEZOGEN
 62
     7
370
    25
100
AcDbDimension
280
     0
  2
*D12
 10
136.345932006836
 20
524.019512759794
 30
0.0
 11
91.845932006836
 21
529.819512759794
 31
0.0
 70
   160
  1
%%c 88.9
 71
     5
 42
-1.0
 73
     0
 74
     0
 75
     0
  3
ISO-25
100
AcDbAlignedDimension
 13
47.345932006836
 23
489.3
 33
0.0
 14
136.345932006836
 24
489.3
 34
0.0
100
AcDbRotatedDimension
1001
ACAD
1000
DSTYLE
1002
{
1070
    44
1040
4.285714285714
1070
   280
1070
     0
1070
    77
1070
     1
1070
   179
1070
     1
1070
   271
1070
     1
1070
   173
1070
     1
1070
    41
1040
6.0
1070
   147
1040
0.857142857143
1070
   140
1040
6.0
1070
   178
1070
     7
1070
   177
1070
     7
1070
   176
1070
     7
1002
}
  0
DIMENSION
  5
20B
330
1F
100
AcDbEntity
  8
Frei
  6
AUSGEZOGEN
 62
     7
370
    25
100
AcDbDimension
280
     0
  2
*D13
 10
161.745895385742
 20
213.335275129952
 30
0.0
 11
91.745902061462
 21
219.135275129952
 31
0.0
 70
   160
  1
%%c 140
 71
     5
 42
-1.0
 73
     0
 74
     0
 75
     0
  3
ISO-25
100
AcDbAlignedDimension
 13
21.745908737183
 23
188.228790283203
 33
0.0
 14
161.745895385742
 24
188.228790283203
 34
0.0
100
AcDbRotatedDimension
1001
ACAD
1000
DSTYLE
1002
{
1070
    44
1040
4.285714285714
1070
   280
1070
     0
1070
    77
1070
     1
1070
   179
1070
     1
1070
   271
1070
     1
1070
   173
1070
     1
1070
    41
1040
6.0
1070
   147
1040
0.857142857143
1070
   140
1040
6.0
1070
   178
1070
     7
1070
   177
1070
     7
1070
   176
1070
     7
1002
}
  0
DIMENSION
  5
215
330
1F
100
AcDbEntity
  8
Frei
  6
AUSGEZOGEN
 62
     7
370
    25
100
AcDbDimension
280
     0
  2
*D14
 10
241.845932006836
 20
240.0
 30
0.0
 11
91.845932006836
 21
245.8
 31
0.0
 70
   160
  1
300 x 300
 71
     5
 42
-1.0
 73
     0
 74
     0
 75
     0
  3
ISO-25
100
AcDbAlignedDimension
 13
-58.154067993164
 23
163.228790283203
 33
0.0
 14
241.845932006836
 24
163.228790283203
 34
0.0
100
AcDbRotatedDimension
1001
ACAD
1000
DSTYLE
1002
{
1070
    44
1040
4.285714285714
1070
   280
1070
     0
1070
    77
1070
     1
1070
   179
1070
     1
1070
   271
1070
     1
1070
   173
1070
     1
1070
    41
1040
6.0
1070
   147
1040
0.857142857143
1070
   140
1040
6.0
1070
   178
1070
     7
1070
   177
1070
     7
1070
   176
1070
     7
1002
}
  0
DIMENSION
  5
21F
330
1F
100
AcDbEntity
  8
Frei
  6
AUSGEZOGEN
 62
     7
370
    25
100
AcDbDimension
280
     0
  2
*D15
 10
148.845932006836
 20
-105.158298714171
 30
0.0
 11
80.0
 21
-99.358298714171
 31
0.0
 70
   160
  1
%%c
 71
     5
 42
-1.0
 73
     0
 74
     0
 75
     0
  3
ISO-25
100
AcDbAlignedDimension
 13
34.845932006836
 23
-79.792343139648
 33
0.0
 14
148.845932006836
 24
-79.792343139648
 34
0.0
100
AcDbRotatedDimension
1001
ACAD
1000
DSTYLE
1002
{
1070
    44
1040
4.285714285714
1070
   280
1070
     0
1070
    77
1070
     1
1070
   179
1070
     1
1070
   271
1070
     1
1070
   173
1070
     1
1070
    41
1040
6.0
1070
   147
1040
0.857142857143
1070
   140
1040
6.0
1070
   178
1070
     7
1070
   177
1070
     7
1070
   176
1070
     7
1002
}
  0
DIMENSION
  5
229
330
1F
100
AcDbEntity
  8
Frei
  6
AUSGEZOGEN
 62
     7
370
    25
100
AcDbDimension
280
     0
  2
*D16
 10
201.795913696289
 20
-79.792343139648
 30
0.0
 11
195.995913696289
 21
41.718223571778
 31
0.0
 70
   160
  1
 
 71
     5
 42
-1.0
 73
     0
 74
     0
 75
     0
 53
90.0
  3
ISO-25
100
AcDbAlignedDimension
 13
202.0
 23
163.228790283203
 33
0.0
 14
150.011756576738
 24
-79.792343139648
 34
0.0
 50
-90.0
100
AcDbRotatedDimension
1001
ACAD
1000
DSTYLE
1002
{
1070
    44
1040
4.285714285714
1070
   280
1070
     0
1070
    77
1070
     1
1070
   179
1070
     1
1070
   271
1070
     1
1070
   173
1070
     1
1070
    41
1040
6.0
1070
   147
1040
0.857142857143
1070
   140
1040
6.0
1070
   178
1070
     7
1070
   177
1070
     7
1070
   176
1070
     7
1002
}
  0
ENDSEC
  0
SECTION
  2
OBJECTS
  0
DICTIONARY
  5
C
330
0
100
AcDbDictionary
281
     1
  3
ACAD_DETAILVIEWSTYLE
350
262
  3
ACAD_GROUP
350
D
  3
ACAD_LAYOUT
350
1A
  3
ACAD_MATERIAL
350
43
  3
ACAD_MLEADERSTYLE
350
6B
  3
ACAD_MLINESTYLE
350
17
  3
ACAD_PLOTSETTINGS
350
19
  3
ACAD_PLOTSTYLENAME
350
E
  3
ACAD_SCALELIST
350
47
  3
ACAD_SECTIONVIEWSTYLE
350
263
  3
ACAD_TABLESTYLE
350
69
  3
ACAD_VISUALSTYLE
350
2A
  3
ACAD_WIPEOUT_VARS
350
25F
  3
ACDB_RECOMPOSE_DATA
350
25E
  3
AcDbVariableDictionary
350
22A
  0
SUN
  5
6D
330
29
100
AcDbSun
 90
        1
290
     0
 63
     7
421
 16777215
 40
1.0
291
     1
 91
  2455826
 92
 54000000
292
     0
 70
     2
 71
   256
280
     1
  0
DICTIONARY
  5
262
102
{ACAD_REACTORS
330
C
102
}
330
C
100
AcDbDictionary
281
     1
  0
DICTIONARY
  5
D
102
{ACAD_REACTORS
330
C
102
}
330
C
100
AcDbDictionary
281
     1
  0
DICTIONARY
  5
1A
102
{ACAD_REACTORS
330
C
102
}
330
C
100
AcDbDictionary
281
     1
  3
Layout1
350
1E
  3
Layout2
350
26
  3
Model
350
22
  0
DICTIONARY
  5
43
102
{ACAD_REACTORS
330
C
102
}
330
C
100
AcDbDictionary
281
     1
  3
ByBlock
350
45
  3
ByLayer
350
44
  3
Global
350
46
  0
DICTIONARY
  5
6B
102
{ACAD_REACTORS
330
C
102
}
330
C
100
AcDbDictionary
281
     1
  3
Standard
350
6C
  0
DICTIONARY
  5
17
102
{ACAD_REACTORS
330
C
102
}
330
C
100
AcDbDictionary
281
     1
  3
Standard
350
18
  0
DICTIONARY
  5
19
102
{ACAD_REACTORS
330
C
102
}
330
C
100
AcDbDictionary
281
     1
  0
ACDBDICTIONARYWDFLT
  5
E
102
{ACAD_REACTORS
330
C
102
}
330
C
100
AcDbDictionary
281
     1
  3
Normal
350
F
100
AcDbDictionaryWithDefault
340
F
  0
DICTIONARY
  5
47
102
{ACAD_REACTORS
330
C
102
}
330
C
100
AcDbDictionary
281
     1
  3
A0
350
48
  3
A1
350
49
  3
A2
350
4A
  3
A3
350
4B
  3
A4
350
4C
  3
A5
350
4D
  3
A6
350
4E
  3
A7
350
4F
  3
A8
350
50
  3
A9
350
51
  3
B0
350
52
  3
B1
350
53
  3
B2
350
54
  3
B3
350
55
  3
B4
350
56
  3
B5
350
57
  3
B6
350
58
  3
B7
350
59
  3
B8
350
5A
  3
B9
350
5B
  3
C0
350
5C
  3
C1
350
5D
  3
C2
350
5E
  3
C3
350
5F
  3
C4
350
60
  3
C5
350
61
  3
C6
350
62
  3
C7
350
63
  3
C8
350
64
  3
C9
350
65
  3
D0
350
66
  3
D1
350
67
  3
D2
350
68
  0
DICTIONARY
  5
263
102
{ACAD_REACTORS
330
C
102
}
330
C
100
AcDbDictionary
281
     1
  0
DICTIONARY
  5
69
102
{ACAD_REACTORS
330
C
102
}
330
C
100
AcDbDictionary
281
     1
  3
Standard
350
6A
  0
DICTIONARY
  5
2A
102
{ACAD_REACTORS
330
C
102
}
330
C
100
AcDbDictionary
281
     1
  3
2dWireframe
350
2F
  3
Basic
350
32
  3
Brighten
350
36
  3
ColorChange
350
3A
  3
Conceptual
350
34
  3
Dim
350
35
  3
EdgeColorOff
350
3D
  3
Facepattern
350
39
  3
Flat
350
2B
  3
FlatWithEdges
350
2C
  3
Gouraud
350
2D
  3
GouraudWithEdges
350
2E
  3
Hidden
350
31
  3
JitterOff
350
3B
  3
Linepattern
350
38
  3
OverhangOff
350
3C
  3
Realistic
350
33
  3
Shaded
350
42
  3
Shaded with edges
350
41
  3
Shades of Gray
350
3E
  3
Sketchy
350
3F
  3
Thicken
350
37
  3
Wireframe
350
30
  3
X-Ray
350
40
  0
WIPEOUTVARIABLES
  5
25F
102
{ACAD_REACTORS
330
C
102
}
330
C
100
AcDbWipeoutVariables
 70
     0
  0
XRECORD
  5
25E
102
{ACAD_REACTORS
330
C
102
}
330
C
100
AcDbXrecord
280
     1
 90
        1
330
6A
  0
DICTIONARY
  5
22A
102
{ACAD_REACTORS
330
C
102
}
330
C
100
AcDbDictionary
281
     1
  3
CANNOSCALE
350
22B
  3
CENTEREXE
350
265
  3
CENTERLTYPEFILE
350
266
  3
CMLEADERSTYLE
350
261
  3
CTABLESTYLE
350
260
  3
WIPEOUTFRAME
350
264
  0
LAYOUT
  5
1E
102
{ACAD_REACTORS
330
1A
102
}
330
1A
100
AcDbPlotSettings
  1

  2
none_device
  4

  6

 40
0.0
 41
0.0
 42
0.0
 43
0.0
 44
0.0
 45
0.0
 46
0.0
 47
0.0
 48
0.0
 49
0.0
140
0.0
141
0.0
142
1.0
143
1.0
 70
   688
 72
     1
 73
     0
 74
     5
  7

 75
    16
 76
     0
 77
     2
 78
   300
147
1.0
148
0.0
149
0.0
100
AcDbLayout
  1
Layout1
 70
     1
 71
     1
 10
0.0
 20
0.0
 11
420.0
 21
297.0
 12
0.0
 22
0.0
 32
0.0
 14
1.000000000000E+20
 24
1.000000000000E+20
 34
1.000000000000E+20
 15
-1.000000000000E+20
 25
-1.000000000000E+20
 35
-1.000000000000E+20
146
0.0
 13
0.0
 23
0.0
 33
0.0
 16
1.0
 26
0.0
 36
0.0
 17
0.0
 27
1.0
 37
0.0
 76
     0
330
1B
  0
LAYOUT
  5
26
102
{ACAD_REACTORS
330
1A
102
}
330
1A
100
AcDbPlotSettings
  1

  2
none_device
  4

  6

 40
0.0
 41
0.0
 42
0.0
 43
0.0
 44
0.0
 45
0.0
 46
0.0
 47
0.0
 48
0.0
 49
0.0
140
0.0
141
0.0
142
1.0
143
1.0
 70
   688
 72
     1
 73
     0
 74
     5
  7

 75
    16
 76
     0
 77
     2
 78
   300
147
1.0
148
0.0
149
0.0
100
AcDbLayout
  1
Layout2
 70
     1
 71
     2
 10
0.0
 20
0.0
 11
0.0
 21
0.0
 12
0.0
 22
0.0
 32
0.0
 14
0.0
 24
0.0
 34
0.0
 15
0.0
 25
0.0
 35
0.0
146
0.0
 13
0.0
 23
0.0
 33
0.0
 16
1.0
 26
0.0
 36
0.0
 17
0.0
 27
1.0
 37
0.0
 76
     0
330
23
  0
LAYOUT
  5
22
102
{ACAD_REACTORS
330
1A
102
}
330
1A
100
AcDbPlotSettings
  1

  2
none_device
  4
Letter_(8.50_x_11.00_Inches)
  6

 40
6.35
 41
6.35
 42
6.35000508
 43
6.35000508
 44
215.9
 45
279.4
 46
0.0
 47
0.0
 48
0.0
 49
0.0
140
0.0
141
0.0
142
1.0
143
1.0
 70
  1712
 72
     1
 73
     0
 74
     0
  7

 75
     0
 76
     0
 77
     2
 78
   300
147
1.0
148
0.0
149
0.0
100
AcDbLayout
  1
Model
 70
     1
 71
     0
 10
0.0
 20
0.0
 11
420.0
 21
297.0
 12
0.0
 22
0.0
 32
0.0
 14
-863.124420989646
 24
-194.17688489257
 34
0.0
 15
1220.767343716236
 25
720.58311510743
 35
0.0
146
0.0
 13
0.0
 23
0.0
 33
0.0
 16
1.0
 26
0.0
 36
0.0
 17
0.0
 27
1.0
 37
0.0
 76
     0
330
1F
331
29
  0
MATERIAL
  5
45
102
{ACAD_REACTORS
330
43
102
}
330
43
100
AcDbMaterial
  1
ByBlock
 72
     1
 94
      127
  0
MATERIAL
  5
44
102
{ACAD_REACTORS
330
43
102
}
330
43
100
AcDbMaterial
  1
ByLayer
 72
     1
 94
      127
  0
MATERIAL
  5
46
102
{ACAD_REACTORS
330
43
102
}
330
43
100
AcDbMaterial
  1
Global
 72
     1
 94
      127
  0
MLEADERSTYLE
  5
6C
102
{ACAD_REACTORS
330
6B
102
}
330
6B
100
AcDbMLeaderStyle
179
     2
170
     2
171
     1
172
     0
 90
        2
 40
0.0
 41
0.0
173
     1
 91
-1056964608
340
14
 92
       -2
290
     1
 42
2.0
291
     1
 43
8.0
  3
Standard
341
0
 44
4.0
300

342
11
174
     1
178
     6
175
     1
176
     0
 93
-1056964608
 45
4.0
292
     0
297
     0
 46
4.0
343
0
 94
-1056964608
 47
1.0
 49
1.0
140
1.0
293
     1
141
0.0
294
     1
177
     0
142
1.0
295
     0
296
     0
143
3.75
271
     0
272
     9
273
     9
  0
MLINESTYLE
  5
18
102
{ACAD_REACTORS
330
17
102
}
330
17
100
AcDbMlineStyle
  2
Standard
 70
     0
  3

 62
   256
 51
90.0
 52
90.0
 71
     2
 49
0.5
 62
   256
  6
BYLAYER
 49
-0.5
 62
   256
  6
BYLAYER
  0
ACDBPLACEHOLDER
  5
F
102
{ACAD_REACTORS
330
E
102
}
330
E
  0
SCALE
  5
48
102
{ACAD_REACTORS
330
47
102
}
330
47
100
AcDbScale
 70
     0
300
1:1
140
1.0
141
1.0
290
     1
  0
SCALE
  5
49
102
{ACAD_REACTORS
330
47
102
}
330
47
100
AcDbScale
 70
     0
300
1:2
140
1.0
141
2.0
290
     0
  0
SCALE
  5
4A
102
{ACAD_REACTORS
330
47
102
}
330
47
100
AcDbScale
 70
     0
300
1:4
140
1.0
141
4.0
290
     0
  0
SCALE
  5
4B
102
{ACAD_REACTORS
330
47
102
}
330
47
100
AcDbScale
 70
     0
300
1:5
140
1.0
141
5.0
290
     0
  0
SCALE
  5
4C
102
{ACAD_REACTORS
330
47
102
}
330
47
100
AcDbScale
 70
     0
300
1:8
140
1.0
141
8.0
290
     0
  0
SCALE
  5
4D
102
{ACAD_REACTORS
330
47
102
}
330
47
100
AcDbScale
 70
     0
300
1:10
140
1.0
141
10.0
290
     0
  0
SCALE
  5
4E
102
{ACAD_REACTORS
330
47
102
}
330
47
100
AcDbScale
 70
     0
300
1:16
140
1.0
141
16.0
290
     0
  0
SCALE
  5
4F
102
{ACAD_REACTORS
330
47
102
}
330
47
100
AcDbScale
 70
     0
300
1:20
140
1.0
141
20.0
290
     0
  0
SCALE
  5
50
102
{ACAD_REACTORS
330
47
102
}
330
47
100
AcDbScale
 70
     0
300
1:30
140
1.0
141
30.0
290
     0
  0
SCALE
  5
51
102
{ACAD_REACTORS
330
47
102
}
330
47
100
AcDbScale
 70
     0
300
1:40
140
1.0
141
40.0
290
     0
  0
SCALE
  5
52
102
{ACAD_REACTORS
330
47
102
}
330
47
100
AcDbScale
 70
     0
300
1:50
140
1.0
141
50.0
290
     0
  0
SCALE
  5
53
102
{ACAD_REACTORS
330
47
102
}
330
47
100
AcDbScale
 70
     0
300
1:100
140
1.0
141
100.0
290
     0
  0
SCALE
  5
54
102
{ACAD_REACTORS
330
47
102
}
330
47
100
AcDbScale
 70
     0
300
2:1
140
2.0
141
1.0
290
     0
  0
SCALE
  5
55
102
{ACAD_REACTORS
330
47
102
}
330
47
100
AcDbScale
 70
     0
300
4:1
140
4.0
141
1.0
290
     0
  0
SCALE
  5
56
102
{ACAD_REACTORS
330
47
102
}
330
47
100
AcDbScale
 70
     0
300
8:1
140
8.0
141
1.0
290
     0
  0
SCALE
  5
57
102
{ACAD_REACTORS
330
47
102
}
330
47
100
AcDbScale
 70
     0
300
10:1
140
10.0
141
1.0
290
     0
  0
SCALE
  5
58
102
{ACAD_REACTORS
330
47
102
}
330
47
100
AcDbScale
 70
     0
300
100:1
140
100.0
141
1.0
290
     0
  0
SCALE
  5
59
102
{ACAD_REACTORS
330
47
102
}
330
47
100
AcDbScale
 70
     0
300
1/128" = 1'-0"
140
0.0078125
141
12.0
290
     0
  0
SCALE
  5
5A
102
{ACAD_REACTORS
330
47
102
}
330
47
100
AcDbScale
 70
     0
300
1/64" = 1'-0"
140
0.015625
141
12.0
290
     0
  0
SCALE
  5
5B
102
{ACAD_REACTORS
330
47
102
}
330
47
100
AcDbScale
 70
     0
300
1/32" = 1'-0"
140
0.03125
141
12.0
290
     0
  0
SCALE
  5
5C
102
{ACAD_REACTORS
330
47
102
}
330
47
100
AcDbScale
 70
     0
300
1/16" = 1'-0"
140
0.0625
141
12.0
290
     0
  0
SCALE
  5
5D
102
{ACAD_REACTORS
330
47
102
}
330
47
100
AcDbScale
 70
     0
300
3/32" = 1'-0"
140
0.09375
141
12.0
290
     0
  0
SCALE
  5
5E
102
{ACAD_REACTORS
330
47
102
}
330
47
100
AcDbScale
 70
     0
300
1/8" = 1'-0"
140
0.125
141
12.0
290
     0
  0
SCALE
  5
5F
102
{ACAD_REACTORS
330
47
102
}
330
47
100
AcDbScale
 70
     0
300
3/16" = 1'-0"
140
0.1875
141
12.0
290
     0
  0
SCALE
  5
60
102
{ACAD_REACTORS
330
47
102
}
330
47
100
AcDbScale
 70
     0
300
1/4" = 1'-0"
140
0.25
141
12.0
290
     0
  0
SCALE
  5
61
102
{ACAD_REACTORS
330
47
102
}
330
47
100
AcDbScale
 70
     0
300
3/8" = 1'-0"
140
0.375
141
12.0
290
     0
  0
SCALE
  5
62
102
{ACAD_REACTORS
330
47
102
}
330
47
100
AcDbScale
 70
     0
300
1/2" = 1'-0"
140
0.5
141
12.0
290
     0
  0
SCALE
  5
63
102
{ACAD_REACTORS
330
47
102
}
330
47
100
AcDbScale
 70
     0
300
3/4" = 1'-0"
140
0.75
141
12.0
290
     0
  0
SCALE
  5
64
102
{ACAD_REACTORS
330
47
102
}
330
47
100
AcDbScale
 70
     0
300
1" = 1'-0"
140
1.0
141
12.0
290
     0
  0
SCALE
  5
65
102
{ACAD_REACTORS
330
47
102
}
330
47
100
AcDbScale
 70
     0
300
1-1/2" = 1'-0"
140
1.5
141
12.0
290
     0
  0
SCALE
  5
66
102
{ACAD_REACTORS
330
47
102
}
330
47
100
AcDbScale
 70
     0
300
3" = 1'-0"
140
3.0
141
12.0
290
     0
  0
SCALE
  5
67
102
{ACAD_REACTORS
330
47
102
}
330
47
100
AcDbScale
 70
     0
300
6" = 1'-0"
140
6.0
141
12.0
290
     0
  0
SCALE
  5
68
102
{ACAD_REACTORS
330
47
102
}
330
47
100
AcDbScale
 70
     0
300
1'-0" = 1'-0"
140
12.0
141
12.0
290
     0
  0
TABLESTYLE
  5
6A
102
{ACAD_REACTORS
330
69
102
}
102
{ACAD_XDICTIONARY
360
25C
102
}
330
69
100
AcDbTableStyle
  3
Standard
 70
     0
 71
     0
 40
0.06
 41
0.06
280
     0
281
     0
  7
Standard
140
4.5
170
     2
 62
     0
 63
   257
283
     0
 90
        4
 91
        0
  1

274
    -2
284
     1
 64
     0
275
    -2
285
     1
 65
     0
276
    -2
286
     1
 66
     0
277
    -2
287
     1
 67
     0
278
    -2
288
     1
 68
     0
279
    -2
289
     1
 69
     0
  7
Standard
140
6.0
170
     5
 62
     0
 63
   257
283
     0
 90
        4
 91
        0
  1

274
    -2
284
     1
 64
     0
275
    -2
285
     1
 65
     0
276
    -2
286
     1
 66
     0
277
    -2
287
     1
 67
     0
278
    -2
288
     1
 68
     0
279
    -2
289
     1
 69
     0
  7
Standard
140
4.5
170
     5
 62
     0
 63
   257
283
     0
 90
        4
 91
        0
  1

274
    -2
284
     1
 64
     0
275
    -2
285
     1
 65
     0
276
    -2
286
     1
 66
     0
277
    -2
287
     1
 67
     0
278
    -2
288
     1
 68
     0
279
    -2
289
     1
 69
     0
  0
VISUALSTYLE
  5
2F
102
{ACAD_REACTORS
330
2A
102
}
102
{ACAD_XDICTIONARY
360
234
102
}
330
2A
100
AcDbVisualStyle
  2
2dWireframe
 70
     4
177
     2
291
     0
 71
     0
176
     1
 72
     2
176
     1
 73
     0
176
     1
 90
        0
176
     1
 40
0.6
176
     1
 41
30.0
176
     1
 62
     5
 63
     7
421
 16777215
176
     1
 74
     1
176
     1
 91
        4
176
     1
 64
     7
176
     1
 65
   257
176
     1
 75
     1
176
     1
175
     1
176
     1
 42
1.0
176
     1
 92
        0
176
     1
 66
   257
176
     1
 43
1.0
176
     1
 76
     1
176
     1
 77
     6
176
     1
 78
     2
176
     1
 67
     7
176
     1
 79
     5
176
     1
170
     0
176
     1
171
     0
176
     1
290
     0
176
     1
 93
        1
176
     1
 44
0.0
176
     1
173
     0
176
     1
  0
VISUALSTYLE
  5
32
102
{ACAD_REACTORS
330
2A
102
}
102
{ACAD_XDICTIONARY
360
23A
102
}
330
2A
100
AcDbVisualStyle
  2
Basic
 70
     7
177
     2
291
     1
 71
     1
176
     1
 72
     0
176
     1
 73
     1
176
     1
 90
        0
176
     1
 40
0.6
176
     1
 41
30.0
176
     1
 62
     5
 63
     7
421
 16777215
176
     1
 74
     0
176
     1
 91
        4
176
     1
 64
     7
176
     1
 65
   257
176
     1
 75
     1
176
     1
175
     1
176
     1
 42
1.0
176
     1
 92
        8
176
     1
 66
     7
176
     1
 43
1.0
176
     1
 76
     1
176
     1
 77
     6
176
     1
 78
     2
176
     1
 67
     7
176
     1
 79
     5
176
     1
170
     0
176
     1
171
     0
176
     1
290
     0
176
     1
 93
        1
176
     1
 44
0.0
176
     1
173
     0
176
     1
  0
VISUALSTYLE
  5
36
102
{ACAD_REACTORS
330
2A
102
}
102
{ACAD_XDICTIONARY
360
242
102
}
330
2A
100
AcDbVisualStyle
  2
Brighten
 70
    12
177
     2
291
     1
 71
     2
176
     1
 72
     2
176
     1
 73
     0
176
     1
 90
        0
176
     1
 40
0.6
176
     1
 41
30.0
176
     1
 62
     5
 63
     7
421
 16777215
176
     1
 74
     1
176
     1
 91
        4
176
     1
 64
     7
176
     1
 65
   257
176
     1
 75
     1
176
     1
175
     1
176
     1
 42
1.0
176
     1
 92
        8
176
     1
 66
     7
176
     1
 43
1.0
176
     1
 76
     1
176
     1
 77
     6
176
     1
 78
     2
176
     1
 67
     7
176
     1
 79
     5
176
     1
170
     0
176
     1
171
     0
176
     1
290
     0
176
     1
 93
        1
176
     1
 44
50.0
176
     1
173
     0
176
     1
  0
VISUALSTYLE
  5
3A
102
{ACAD_REACTORS
330
2A
102
}
102
{ACAD_XDICTIONARY
360
24A
102
}
330
2A
100
AcDbVisualStyle
  2
ColorChange
 70
    16
177
     2
291
     1
 71
     2
176
     1
 72
     2
176
     1
 73
     3
176
     1
 90
        0
176
     1
 40
0.6
176
     1
 41
30.0
176
     1
 62
     5
 63
     8
421
  8421504
176
     1
 74
     1
176
     1
 91
        4
176
     1
 64
     7
176
     1
 65
   257
176
     1
 75
     1
176
     1
175
     1
176
     1
 42
1.0
176
     1
 92
        8
176
     1
 66
     8
424
  8421504
176
     1
 43
1.0
176
     1
 76
     1
176
     1
 77
     6
176
     1
 78
     2
176
     1
 67
     7
176
     1
 79
     5
176
     1
170
     0
176
     1
171
     0
176
     1
290
     0
176
     1
 93
        1
176
     1
 44
0.0
176
     1
173
     0
176
     1
  0
VISUALSTYLE
  5
34
102
{ACAD_REACTORS
330
2A
102
}
102
{ACAD_XDICTIONARY
360
23E
102
}
330
2A
100
AcDbVisualStyle
  2
Conceptual
 70
     9
177
     2
291
     0
 71
     3
176
     1
 72
     2
176
     1
 73
     0
176
     1
 90
        0
176
     1
 40
0.6
176
     1
 41
30.0
176
     1
 62
     5
 63
     7
421
 16777215
176
     1
 74
     2
176
     1
 91
        2
176
     1
 64
     7
176
     1
 65
   257
176
     1
 75
     1
176
     1
175
     1
176
     1
 42
179.0
176
     1
 92
        8
176
     1
 66
     7
176
     1
 43
1.0
176
     1
 76
     1
176
     1
 77
     6
176
     1
 78
     2
176
     1
 67
     7
176
     1
 79
     3
176
     1
170
     0
176
     1
171
     0
176
     1
290
     0
176
     1
 93
        1
176
     1
 44
0.0
176
     1
173
     0
176
     1
  0
VISUALSTYLE
  5
35
102
{ACAD_REACTORS
330
2A
102
}
102
{ACAD_XDICTIONARY
360
240
102
}
330
2A
100
AcDbVisualStyle
  2
Dim
 70
    11
177
     2
291
     1
 71
     2
176
     1
 72
     2
176
     1
 73
     0
176
     1
 90
        0
176
     1
 40
0.6
176
     1
 41
30.0
176
     1
 62
     5
 63
     7
421
 16777215
176
     1
 74
     1
176
     1
 91
        4
176
     1
 64
     7
176
     1
 65
   257
176
     1
 75
     1
176
     1
175
     1
176
     1
 42
1.0
176
     1
 92
        8
176
     1
 66
     7
176
     1
 43
1.0
176
     1
 76
     1
176
     1
 77
     6
176
     1
 78
     2
176
     1
 67
     7
176
     1
 79
     5
176
     1
170
     0
176
     1
171
     0
176
     1
290
     0
176
     1
 93
        1
176
     1
 44
-50.0
176
     1
173
     0
176
     1
  0
VISUALSTYLE
  5
3D
102
{ACAD_REACTORS
330
2A
102
}
102
{ACAD_XDICTIONARY
360
250
102
}
330
2A
100
AcDbVisualStyle
  2
EdgeColorOff
 70
    22
177
     2
291
     1
 71
     2
176
     0
 72
     2
176
     0
 73
     0
176
     0
 90
        0
176
     0
 40
0.6
176
     0
 41
30.0
176
     0
 62
     5
 63
     7
421
 16777215
176
     0
 74
     1
176
     0
 91
        4
176
     0
 64
     7
176
     0
 65
   257
176
     0
 75
     1
176
     0
175
     1
176
     0
 42
1.0
176
     0
 92
        8
176
     2
 66
     7
176
     0
 43
1.0
176
     0
 76
     1
176
     0
 77
     6
176
     0
 78
     2
176
     0
 67
     7
176
     0
 79
     5
176
     0
170
     0
176
     0
171
     0
176
     0
290
     0
176
     0
 93
        1
176
     0
 44
0.0
176
     0
173
     0
176
     0
  0
VISUALSTYLE
  5
39
102
{ACAD_REACTORS
330
2A
102
}
102
{ACAD_XDICTIONARY
360
248
102
}
330
2A
100
AcDbVisualStyle
  2
Facepattern
 70
    15
177
     2
291
     1
 71
     2
176
     1
 72
     2
176
     1
 73
     0
176
     1
 90
        0
176
     1
 40
0.6
176
     1
 41
30.0
176
     1
 62
     5
 63
     7
421
 16777215
176
     1
 74
     1
176
     1
 91
        4
176
     1
 64
     7
176
     1
 65
   257
176
     1
 75
     1
176
     1
175
     1
176
     1
 42
1.0
176
     1
 92
        8
176
     1
 66
     7
176
     1
 43
1.0
176
     1
 76
     1
176
     1
 77
     6
176
     1
 78
     2
176
     1
 67
     7
176
     1
 79
     5
176
     1
170
     0
176
     1
171
     0
176
     1
290
     0
176
     1
 93
        1
176
     1
 44
0.0
176
     1
173
     0
176
     1
  0
VISUALSTYLE
  5
2B
102
{ACAD_REACTORS
330
2A
102
}
102
{ACAD_XDICTIONARY
360
22C
102
}
330
2A
100
AcDbVisualStyle
  2
Flat
 70
     0
177
     2
291
     1
 71
     2
176
     1
 72
     1
176
     1
 73
     1
176
     1
 90
        2
176
     1
 40
0.6
176
     1
 41
30.0
176
     1
 62
     5
 63
     7
421
 16777215
176
     1
 74
     0
176
     1
 91
        0
176
     1
 64
     7
176
     1
 65
   257
176
     1
 75
     1
176
     1
175
     1
176
     1
 42
1.0
176
     1
 92
        8
176
     1
 66
     7
176
     1
 43
1.0
176
     1
 76
     1
176
     1
 77
     6
176
     1
 78
     2
176
     1
 67
     7
176
     1
 79
     5
176
     1
170
     0
176
     1
171
     0
176
     1
290
     0
176
     1
 93
       13
176
     1
 44
0.0
176
     1
173
     0
176
     1
  0
VISUALSTYLE
  5
2C
102
{ACAD_REACTORS
330
2A
102
}
102
{ACAD_XDICTIONARY
360
22E
102
}
330
2A
100
AcDbVisualStyle
  2
FlatWithEdges
 70
     1
177
     2
291
     1
 71
     2
176
     1
 72
     1
176
     1
 73
     1
176
     1
 90
        2
176
     1
 40
0.6
176
     1
 41
30.0
176
     1
 62
     5
 63
     7
421
 16777215
176
     1
 74
     1
176
     1
 91
        0
176
     1
 64
     7
176
     1
 65
   257
176
     1
 75
     1
176
     1
175
     1
176
     1
 42
1.0
176
     1
 92
        0
176
     1
 66
   257
176
     1
 43
1.0
176
     1
 76
     1
176
     1
 77
     6
176
     1
 78
     2
176
     1
 67
     7
176
     1
 79
     5
176
     1
170
     0
176
     1
171
     0
176
     1
290
     0
176
     1
 93
       13
176
     1
 44
0.0
176
     1
173
     0
176
     1
  0
VISUALSTYLE
  5
2D
102
{ACAD_REACTORS
330
2A
102
}
102
{ACAD_XDICTIONARY
360
230
102
}
330
2A
100
AcDbVisualStyle
  2
Gouraud
 70
     2
177
     2
291
     1
 71
     2
176
     1
 72
     2
176
     1
 73
     1
176
     1
 90
        2
176
     1
 40
0.6
176
     1
 41
30.0
176
     1
 62
     5
 63
     7
421
 16777215
176
     1
 74
     0
176
     1
 91
        0
176
     1
 64
     7
176
     1
 65
   257
176
     1
 75
     1
176
     1
175
     1
176
     1
 42
1.0
176
     1
 92
        0
176
     1
 66
     7
176
     1
 43
1.0
176
     1
 76
     1
176
     1
 77
     6
176
     1
 78
     2
176
     1
 67
     7
176
     1
 79
     5
176
     1
170
     0
176
     1
171
     0
176
     1
290
     0
176
     1
 93
       13
176
     1
 44
0.0
176
     1
173
     0
176
     1
  0
VISUALSTYLE
  5
2E
102
{ACAD_REACTORS
330
2A
102
}
102
{ACAD_XDICTIONARY
360
232
102
}
330
2A
100
AcDbVisualStyle
  2
GouraudWithEdges
 70
     3
177
     2
291
     1
 71
     2
176
     1
 72
     2
176
     1
 73
     1
176
     1
 90
        2
176
     1
 40
0.6
176
     1
 41
30.0
176
     1
 62
     5
 63
     7
421
 16777215
176
     1
 74
     1
176
     1
 91
        0
176
     1
 64
     7
176
     1
 65
   257
176
     1
 75
     1
176
     1
175
     1
176
     1
 42
1.0
176
     1
 92
        0
176
     1
 66
   257
176
     1
 43
1.0
176
     1
 76
     1
176
     1
 77
     6
176
     1
 78
     2
176
     1
 67
     7
176
     1
 79
     5
176
     1
170
     0
176
     1
171
     0
176
     1
290
     0
176
     1
 93
       13
176
     1
 44
0.0
176
     1
173
     0
176
     1
  0
VISUALSTYLE
  5
31
102
{ACAD_REACTORS
330
2A
102
}
102
{ACAD_XDICTIONARY
360
238
102
}
330
2A
100
AcDbVisualStyle
  2
Hidden
 70
     6
177
     2
291
     0
 71
     1
176
     1
 72
     2
176
     1
 73
     2
176
     1
 90
        0
176
     1
 40
0.6
176
     1
 41
30.0
176
     1
 62
     5
 63
     7
421
 16777215
176
     1
 74
     2
176
     1
 91
        2
176
     1
 64
     7
176
     1
 65
   257
176
     1
 75
     2
176
     1
175
     1
176
     1
 42
40.0
176
     1
 92
        0
176
     1
 66
   257
176
     1
 43
1.0
176
     1
 76
     1
176
     1
 77
     6
176
     1
 78
     2
176
     1
 67
     7
176
     1
 79
     3
176
     1
170
     0
176
     1
171
     0
176
     1
290
     0
176
     1
 93
        1
176
     1
 44
0.0
176
     1
173
     0
176
     1
  0
VISUALSTYLE
  5
3B
102
{ACAD_REACTORS
330
2A
102
}
102
{ACAD_XDICTIONARY
360
24C
102
}
330
2A
100
AcDbVisualStyle
  2
JitterOff
 70
    20
177
     2
291
     1
 71
     2
176
     0
 72
     2
176
     0
 73
     0
176
     0
 90
        0
176
     0
 40
0.6
176
     0
 41
30.0
176
     0
 62
     5
 63
     7
421
 16777215
176
     0
 74
     1
176
     0
 91
        4
176
     0
 64
     7
176
     0
 65
   257
176
     0
 75
     1
176
     0
175
     1
176
     0
 42
1.0
176
     0
 92
       10
176
     2
 66
     7
176
     0
 43
1.0
176
     0
 76
     1
176
     0
 77
     6
176
     0
 78
     2
176
     0
 67
     7
176
     0
 79
     5
176
     0
170
     0
176
     0
171
     0
176
     0
290
     0
176
     0
 93
        1
176
     0
 44
0.0
176
     0
173
     0
176
     0
  0
VISUALSTYLE
  5
38
102
{ACAD_REACTORS
330
2A
102
}
102
{ACAD_XDICTIONARY
360
246
102
}
330
2A
100
AcDbVisualStyle
  2
Linepattern
 70
    14
177
     2
291
     1
 71
     2
176
     1
 72
     2
176
     1
 73
     0
176
     1
 90
        0
176
     1
 40
0.6
176
     1
 41
30.0
176
     1
 62
     5
 63
     7
421
 16777215
176
     1
 74
     1
176
     1
 91
        4
176
     1
 64
     7
176
     1
 65
   257
176
     1
 75
     7
176
     1
175
     7
176
     1
 42
1.0
176
     1
 92
        8
176
     1
 66
     7
176
     1
 43
1.0
176
     1
 76
     1
176
     1
 77
     6
176
     1
 78
     2
176
     1
 67
     7
176
     1
 79
     5
176
     1
170
     0
176
     1
171
     0
176
     1
290
     0
176
     1
 93
        1
176
     1
 44
0.0
176
     1
173
     0
176
     1
  0
VISUALSTYLE
  5
3C
102
{ACAD_REACTORS
330
2A
102
}
102
{ACAD_XDICTIONARY
360
24E
102
}
330
2A
100
AcDbVisualStyle
  2
OverhangOff
 70
    21
177
     2
291
     1
 71
     2
176
     0
 72
     2
176
     0
 73
     0
176
     0
 90
        0
176
     0
 40
0.6
176
     0
 41
30.0
176
     0
 62
     5
 63
     7
421
 16777215
176
     0
 74
     1
176
     0
 91
        4
176
     0
 64
     7
176
     0
 65
   257
176
     0
 75
     1
176
     0
175
     1
176
     0
 42
1.0
176
     0
 92
        9
176
     2
 66
     7
176
     0
 43
1.0
176
     0
 76
     1
176
     0
 77
     6
176
     0
 78
     2
176
     0
 67
     7
176
     0
 79
     5
176
     0
170
     0
176
     0
171
     0
176
     0
290
     0
176
     0
 93
        1
176
     0
 44
0.0
176
     0
173
     0
176
     0
  0
VISUALSTYLE
  5
33
102
{ACAD_REACTORS
330
2A
102
}
102
{ACAD_XDICTIONARY
360
23C
102
}
330
2A
100
AcDbVisualStyle
  2
Realistic
 70
     8
177
     2
291
     0
 71
     2
176
     1
 72
     3
176
     1
 73
     0
176
     1
 90
        2
176
     1
 40
0.6
176
     1
 41
30.0
176
     1
 62
     5
 63
     7
421
 16777215
176
     1
 74
     0
176
     1
 91
        0
176
     1
 64
     7
176
     1
 65
   257
176
     1
 75
     1
176
     1
175
     1
176
     1
 42
1.0
176
     1
 92
        8
176
     1
 66
   257
176
     1
 43
1.0
176
     1
 76
     1
176
     1
 77
     6
176
     1
 78
     2
176
     1
 67
     7
176
     1
 79
     3
176
     1
170
     0
176
     1
171
     0
176
     1
290
     0
176
     1
 93
       13
176
     1
 44
0.0
176
     1
173
     0
176
     1
  0
VISUALSTYLE
  5
42
102
{ACAD_REACTORS
330
2A
102
}
102
{ACAD_XDICTIONARY
360
25A
102
}
330
2A
100
AcDbVisualStyle
  2
Shaded
 70
    27
177
     2
291
     0
 71
     2
176
     1
 72
     2
176
     1
 73
     1
176
     1
 90
        2
176
     1
 40
0.6
176
     1
 41
30.0
176
     1
 62
     5
 63
     7
421
 16777215
176
     1
 74
     0
176
     1
 91
        4
176
     1
 64
     7
176
     1
 65
   257
176
     1
 75
     1
176
     1
175
     1
176
     1
 42
1.0
176
     1
 92
        8
176
     1
 66
   257
176
     1
 43
1.0
176
     1
 76
     1
176
     1
 77
     6
176
     1
 78
     2
176
     1
 67
     8
425
  7895160
176
     1
 79
     3
176
     1
170
     0
176
     1
171
     0
176
     1
290
     0
176
     1
 93
        5
176
     1
 44
0.0
176
     1
173
     0
176
     1
  0
VISUALSTYLE
  5
41
102
{ACAD_REACTORS
330
2A
102
}
102
{ACAD_XDICTIONARY
360
258
102
}
330
2A
100
AcDbVisualStyle
  2
Shaded with edges
 70
    26
177
     2
291
     0
 71
     2
176
     1
 72
     2
176
     1
 73
     1
176
     1
 90
        2
176
     1
 40
0.6
176
     1
 41
30.0
176
     1
 62
     5
 63
     7
421
 16777215
176
     1
 74
     1
176
     1
 91
       10
176
     1
 64
     7
176
     1
 65
   257
176
     1
 75
     2
176
     1
175
     1
176
     1
 42
1.0
176
     1
 92
        8
176
     1
 66
   257
176
     1
 43
1.0
176
     1
 76
     1
176
     1
 77
     6
176
     1
 78
     2
176
     1
 67
     7
176
     1
 79
     3
176
     1
170
     0
176
     1
171
     0
176
     1
290
     0
176
     1
 93
        5
176
     1
 44
0.0
176
     1
173
     0
176
     1
  0
VISUALSTYLE
  5
3E
102
{ACAD_REACTORS
330
2A
102
}
102
{ACAD_XDICTIONARY
360
252
102
}
330
2A
100
AcDbVisualStyle
  2
Shades of Gray
 70
    23
177
     2
291
     0
 71
     2
176
     1
 72
     2
176
     1
 73
     3
176
     1
 90
        0
176
     1
 40
0.6
176
     1
 41
30.0
176
     1
 62
     5
 63
     7
421
 16777215
176
     1
 74
     2
176
     1
 91
        2
176
     1
 64
     7
176
     1
 65
     7
176
     1
 75
     1
176
     1
175
     1
176
     1
 42
40.0
176
     1
 92
        8
176
     1
 66
     7
176
     1
 43
1.0
176
     1
 76
     1
176
     1
 77
     6
176
     1
 78
     2
176
     1
 67
     7
176
     1
 79
     3
176
     1
170
     0
176
     1
171
     0
176
     1
290
     0
176
     1
 93
        1
176
     1
 44
0.0
176
     1
173
     0
176
     1
  0
VISUALSTYLE
  5
3F
102
{ACAD_REACTORS
330
2A
102
}
102
{ACAD_XDICTIONARY
360
254
102
}
330
2A
100
AcDbVisualStyle
  2
Sketchy
 70
    24
177
     2
291
     0
 71
     1
176
     1
 72
     2
176
     1
 73
     2
176
     1
 90
        0
176
     1
 40
0.6
176
     1
 41
30.0
176
     1
 62
     5
 63
     7
421
 16777215
176
     1
 74
     2
176
     1
 91
        2
176
     1
 64
     7
176
     1
 65
     7
176
     1
 75
     1
176
     1
175
     1
176
     1
 42
40.0
176
     1
 92
       11
176
     1
 66
     7
176
     1
 43
1.0
176
     1
 76
     1
176
     1
 77
     6
176
     1
 78
     2
176
     1
 67
     7
176
     1
 79
     6
176
     1
170
     0
176
     1
171
     0
176
     1
290
     0
176
     1
 93
        1
176
     1
 44
0.0
176
     1
173
     0
176
     1
  0
VISUALSTYLE
  5
37
102
{ACAD_REACTORS
330
2A
102
}
102
{ACAD_XDICTIONARY
360
244
102
}
330
2A
100
AcDbVisualStyle
  2
Thicken
 70
    13
177
     2
291
     1
 71
     2
176
     1
 72
     2
176
     1
 73
     0
176
     1
 90
        0
176
     1
 40
0.6
176
     1
 41
30.0
176
     1
 62
     5
 63
     7
421
 16777215
176
     1
 74
     1
176
     1
 91
        4
176
     1
 64
     7
176
     1
 65
   257
176
     1
 75
     1
176
     1
175
     1
176
     1
 42
1.0
176
     1
 92
       12
176
     1
 66
     7
176
     1
 43
1.0
176
     1
 76
     1
176
     1
 77
     6
176
     1
 78
     2
176
     1
 67
     7
176
     1
 79
     5
176
     1
170
     0
176
     1
171
     0
176
     1
290
     0
176
     1
 93
        1
176
     1
 44
0.0
176
     1
173
     0
176
     1
  0
VISUALSTYLE
  5
30
102
{ACAD_REACTORS
330
2A
102
}
102
{ACAD_XDICTIONARY
360
236
102
}
330
2A
100
AcDbVisualStyle
  2
Wireframe
 70
     5
177
     2
291
     0
 71
     0
176
     1
 72
     2
176
     1
 73
     0
176
     1
 90
        0
176
     1
 40
0.6
176
     1
 41
30.0
176
     1
 62
     5
 63
     7
421
 16777215
176
     1
 74
     1
176
     1
 91
        4
176
     1
 64
     7
176
     1
 65
   257
176
     1
 75
     1
176
     1
175
     1
176
     1
 42
1.0
176
     1
 92
        0
176
     1
 66
   257
176
     1
 43
1.0
176
     1
 76
     1
176
     1
 77
     6
176
     1
 78
     2
176
     1
 67
     7
176
     1
 79
     3
176
     1
170
     0
176
     1
171
     0
176
     1
290
     0
176
     1
 93
        1
176
     1
 44
0.0
176
     1
173
     0
176
     1
  0
VISUALSTYLE
  5
40
102
{ACAD_REACTORS
330
2A
102
}
102
{ACAD_XDICTIONARY
360
256
102
}
330
2A
100
AcDbVisualStyle
  2
X-Ray
 70
    25
177
     2
291
     0
 71
     2
176
     1
 72
     2
176
     1
 73
     1
176
     1
 90
        1
176
     1
 40
0.5
176
     1
 41
30.0
176
     1
 62
     5
 63
     7
421
 16777215
176
     1
 74
     1
176
     1
 91
        0
176
     1
 64
     7
176
     1
 65
   257
176
     1
 75
     1
176
     1
175
     1
176
     1
 42
1.0
176
     1
 92
        8
176
     1
 66
     7
176
     1
 43
1.0
176
     1
 76
     1
176
     1
 77
     6
176
     1
 78
     2
176
     1
 67
     7
176
     1
 79
     3
176
     1
170
     0
176
     1
171
     0
176
     1
290
     0
176
     1
 93
       13
176
     1
 44
0.0
176
     1
173
     0
176
     1
  0
DICTIONARYVAR
  5
22B
102
{ACAD_REACTORS
330
22A
102
}
330
22A
100
DictionaryVariables
280
     0
  1
1:1
  0
DICTIONARYVAR
  5
265
102
{ACAD_REACTORS
330
22A
102
}
330
22A
100
DictionaryVariables
280
     0
  1
3.500000
  0
DICTIONARYVAR
  5
266
102
{ACAD_REACTORS
330
22A
102
}
330
22A
100
DictionaryVariables
280
     0
  1
acadiso.lin
  0
DICTIONARYVAR
  5
261
102
{ACAD_REACTORS
330
22A
102
}
330
22A
100
DictionaryVariables
280
     0
  1
Standard
  0
DICTIONARYVAR
  5
260
102
{ACAD_REACTORS
330
22A
102
}
330
22A
100
DictionaryVariables
280
     0
  1
Standard
  0
DICTIONARYVAR
  5
264
102
{ACAD_REACTORS
330
22A
102
}
330
22A
100
DictionaryVariables
280
     0
  1
0
  0
DICTIONARY
  5
25C
330
6A
100
AcDbDictionary
280
     1
281
     1
  3
ACAD_ROUNDTRIP_2008_TABLESTYLE_CELLSTYLEMAP
360
25D
  0
DICTIONARY
  5
234
330
2F
100
AcDbDictionary
280
     1
281
     1
  3
ACAD_XREC_ROUNDTRIP
360
235
  0
DICTIONARY
  5
23A
330
32
100
AcDbDictionary
280
     1
281
     1
  3
ACAD_XREC_ROUNDTRIP
360
23B
  0
DICTIONARY
  5
242
330
36
100
AcDbDictionary
280
     1
281
     1
  3
ACAD_XREC_ROUNDTRIP
360
243
  0
DICTIONARY
  5
24A
330
3A
100
AcDbDictionary
280
     1
281
     1
  3
ACAD_XREC_ROUNDTRIP
360
24B
  0
DICTIONARY
  5
23E
330
34
100
AcDbDictionary
280
     1
281
     1
  3
ACAD_XREC_ROUNDTRIP
360
23F
  0
DICTIONARY
  5
240
330
35
100
AcDbDictionary
280
     1
281
     1
  3
ACAD_XREC_ROUNDTRIP
360
241
  0
DICTIONARY
  5
250
330
3D
100
AcDbDictionary
280
     1
281
     1
  3
ACAD_XREC_ROUNDTRIP
360
251
  0
DICTIONARY
  5
248
330
39
100
AcDbDictionary
280
     1
281
     1
  3
ACAD_XREC_ROUNDTRIP
360
249
  0
DICTIONARY
  5
22C
330
2B
100
AcDbDictionary
280
     1
281
     1
  3
ACAD_XREC_ROUNDTRIP
360
22D
  0
DICTIONARY
  5
22E
330
2C
100
AcDbDictionary
280
     1
281
     1
  3
ACAD_XREC_ROUNDTRIP
360
22F
  0
DICTIONARY
  5
230
330
2D
100
AcDbDictionary
280
     1
281
     1
  3
ACAD_XREC_ROUNDTRIP
360
231
  0
DICTIONARY
  5
232
330
2E
100
AcDbDictionary
280
     1
281
     1
  3
ACAD_XREC_ROUNDTRIP
360
233
  0
DICTIONARY
  5
238
330
31
100
AcDbDictionary
280
     1
281
     1
  3
ACAD_XREC_ROUNDTRIP
360
239
  0
DICTIONARY
  5
24C
330
3B
100
AcDbDictionary
280
     1
281
     1
  3
ACAD_XREC_ROUNDTRIP
360
24D
  0
DICTIONARY
  5
246
330
38
100
AcDbDictionary
280
     1
281
     1
  3
ACAD_XREC_ROUNDTRIP
360
247
  0
DICTIONARY
  5
24E
330
3C
100
AcDbDictionary
280
     1
281
     1
  3
ACAD_XREC_ROUNDTRIP
360
24F
  0
DICTIONARY
  5
23C
330
33
100
AcDbDictionary
280
     1
281
     1
  3
ACAD_XREC_ROUNDTRIP
360
23D
  0
DICTIONARY
  5
25A
330
42
100
AcDbDictionary
280
     1
281
     1
  3
ACAD_XREC_ROUNDTRIP
360
25B
  0
DICTIONARY
  5
258
330
41
100
AcDbDictionary
280
     1
281
     1
  3
ACAD_XREC_ROUNDTRIP
360
259
  0
DICTIONARY
  5
252
330
3E
100
AcDbDictionary
280
     1
281
     1
  3
ACAD_XREC_ROUNDTRIP
360
253
  0
DICTIONARY
  5
254
330
3F
100
AcDbDictionary
280
     1
281
     1
  3
ACAD_XREC_ROUNDTRIP
360
255
  0
DICTIONARY
  5
244
330
37
100
AcDbDictionary
280
     1
281
     1
  3
ACAD_XREC_ROUNDTRIP
360
245
  0
DICTIONARY
  5
236
330
30
100
AcDbDictionary
280
     1
281
     1
  3
ACAD_XREC_ROUNDTRIP
360
237
  0
DICTIONARY
  5
256
330
40
100
AcDbDictionary
280
     1
281
     1
  3
ACAD_XREC_ROUNDTRIP
360
257
  0
CELLSTYLEMAP
  5
25D
102
{ACAD_REACTORS
330
25C
102
}
330
25C
100
AcDbCellStyleMap
 90
        3
300
CELLSTYLE
  1
TABLEFORMAT_BEGIN
 90
        5
170
     1
 91
        0
 92
    32768
 62
   257
 93
        1
300
CONTENTFORMAT
  1
CONTENTFORMAT_BEGIN
 90
        0
 91
        0
 92
        4
 93
        0
300

 40
0.0
140
1.0
 94
        5
 62
     0
340
11
144
6.0
309
CONTENTFORMAT_END
171
     1
301
MARGIN
  1
CELLMARGIN_BEGIN
 40
1.5
 40
1.5
 40
1.5
 40
1.5
 40
1.5
 40
1.5
309
CELLMARGIN_END
 94
        6
 95
        1
302
GRIDFORMAT
  1
GRIDFORMAT_BEGIN
 90
        0
 91
        1
 62
     0
 92
       -2
340
14
 93
        0
 40
0.045
309
GRIDFORMAT_END
 95
        2
302
GRIDFORMAT
  1
GRIDFORMAT_BEGIN
 90
        0
 91
        1
 62
     0
 92
       -2
340
14
 93
        0
 40
0.045
309
GRIDFORMAT_END
 95
        4
302
GRIDFORMAT
  1
GRIDFORMAT_BEGIN
 90
        0
 91
        1
 62
     0
 92
       -2
340
14
 93
        0
 40
0.045
309
GRIDFORMAT_END
 95
        8
302
GRIDFORMAT
  1
GRIDFORMAT_BEGIN
 90
        0
 91
        1
 62
     0
 92
       -2
340
14
 93
        0
 40
0.045
309
GRIDFORMAT_END
 95
       16
302
GRIDFORMAT
  1
GRIDFORMAT_BEGIN
 90
        0
 91
        1
 62
     0
 92
       -2
340
14
 93
        0
 40
0.045
309
GRIDFORMAT_END
 95
       32
302
GRIDFORMAT
  1
GRIDFORMAT_BEGIN
 90
        0
 91
        1
 62
     0
 92
       -2
340
14
 93
        0
 40
0.045
309
GRIDFORMAT_END
309
TABLEFORMAT_END
  1
CELLSTYLE_BEGIN
 90
        1
 91
        1
300
_TITLE
309
CELLSTYLE_END
300
CELLSTYLE
  1
TABLEFORMAT_BEGIN
 90
        5
170
     1
 91
        0
 92
        0
 62
   257
 93
        1
300
CONTENTFORMAT
  1
CONTENTFORMAT_BEGIN
 90
        0
 91
        0
 92
        4
 93
        0
300

 40
0.0
140
1.0
 94
        5
 62
     0
340
11
144
4.5
309
CONTENTFORMAT_END
171
     1
301
MARGIN
  1
CELLMARGIN_BEGIN
 40
1.5
 40
1.5
 40
1.5
 40
1.5
 40
1.5
 40
1.5
309
CELLMARGIN_END
 94
        6
 95
        1
302
GRIDFORMAT
  1
GRIDFORMAT_BEGIN
 90
        0
 91
        1
 62
     0
 92
       -2
340
14
 93
        0
 40
0.045
309
GRIDFORMAT_END
 95
        2
302
GRIDFORMAT
  1
GRIDFORMAT_BEGIN
 90
        0
 91
        1
 62
     0
 92
       -2
340
14
 93
        0
 40
0.045
309
GRIDFORMAT_END
 95
        4
302
GRIDFORMAT
  1
GRIDFORMAT_BEGIN
 90
        0
 91
        1
 62
     0
 92
       -2
340
14
 93
        0
 40
0.045
309
GRIDFORMAT_END
 95
        8
302
GRIDFORMAT
  1
GRIDFORMAT_BEGIN
 90
        0
 91
        1
 62
     0
 92
       -2
340
14
 93
        0
 40
0.045
309
GRIDFORMAT_END
 95
       16
302
GRIDFORMAT
  1
GRIDFORMAT_BEGIN
 90
        0
 91
        1
 62
     0
 92
       -2
340
14
 93
        0
 40
0.045
309
GRIDFORMAT_END
 95
       32
302
GRIDFORMAT
  1
GRIDFORMAT_BEGIN
 90
        0
 91
        1
 62
     0
 92
       -2
340
14
 93
        0
 40
0.045
309
GRIDFORMAT_END
309
TABLEFORMAT_END
  1
CELLSTYLE_BEGIN
 90
        2
 91
        1
300
_HEADER
309
CELLSTYLE_END
300
CELLSTYLE
  1
TABLEFORMAT_BEGIN
 90
        5
170
     1
 91
        0
 92
        0
 62
   257
 93
        1
300
CONTENTFORMAT
  1
CONTENTFORMAT_BEGIN
 90
        0
 91
        0
 92
        4
 93
        0
300

 40
0.0
140
1.0
 94
        2
 62
     0
340
11
144
4.5
309
CONTENTFORMAT_END
171
     1
301
MARGIN
  1
CELLMARGIN_BEGIN
 40
1.5
 40
1.5
 40
1.5
 40
1.5
 40
1.5
 40
1.5
309
CELLMARGIN_END
 94
        6
 95
        1
302
GRIDFORMAT
  1
GRIDFORMAT_BEGIN
 90
        0
 91
        1
 62
     0
 92
       -2
340
14
 93
        0
 40
0.045
309
GRIDFORMAT_END
 95
        2
302
GRIDFORMAT
  1
GRIDFORMAT_BEGIN
 90
        0
 91
        1
 62
     0
 92
       -2
340
14
 93
        0
 40
0.045
309
GRIDFORMAT_END
 95
        4
302
GRIDFORMAT
  1
GRIDFORMAT_BEGIN
 90
        0
 91
        1
 62
     0
 92
       -2
340
14
 93
        0
 40
0.045
309
GRIDFORMAT_END
 95
        8
302
GRIDFORMAT
  1
GRIDFORMAT_BEGIN
 90
        0
 91
        1
 62
     0
 92
       -2
340
14
 93
        0
 40
0.045
309
GRIDFORMAT_END
 95
       16
302
GRIDFORMAT
  1
GRIDFORMAT_BEGIN
 90
        0
 91
        1
 62
     0
 92
       -2
340
14
 93
        0
 40
0.045
309
GRIDFORMAT_END
 95
       32
302
GRIDFORMAT
  1
GRIDFORMAT_BEGIN
 90
        0
 91
        1
 62
     0
 92
       -2
340
14
 93
        0
 40
0.045
309
GRIDFORMAT_END
309
TABLEFORMAT_END
  1
CELLSTYLE_BEGIN
 90
        3
 91
        2
300
_DATA
309
CELLSTYLE_END
  0
XRECORD
  5
235
102
{ACAD_REACTORS
330
234
102
}
330
234
100
AcDbXrecord
280
     1
102
RTVSPost2010Prop28
280
     1
102
RTVSPost2010PropOp28
 70
     1
102
RTVSPost2010Prop29
280
     1
102
RTVSPost2010PropOp29
 70
     1
102
RTVSPost2010Prop30
280
     0
102
RTVSPost2010PropOp30
 70
     1
102
RTVSPost2010Prop31
280
     0
102
RTVSPost2010PropOp31
 70
     1
102
RTVSPost2010Prop32
280
     0
102
RTVSPost2010PropOp32
 70
     1
102
RTVSPost2010Prop33
280
     0
102
RTVSPost2010PropOp33
 70
     1
102
RTVSPost2010Prop34
280
     0
102
RTVSPost2010PropOp34
 70
     1
102
RTVSPost2010Prop35
280
     0
102
RTVSPost2010PropOp35
 70
     1
102
RTVSPost2010Prop36
280
     0
102
RTVSPost2010PropOp36
 70
     1
102
RTVSPost2010Prop37
 90
       50
102
RTVSPost2010PropOp37
 70
     1
102
RTVSPost2010Prop38
140
0.0
102
RTVSPost2010PropOp38
 70
     1
102
RTVSPost2010Prop39
140
1.0
102
RTVSPost2010PropOp39
 70
     1
102
RTVSPost2010Prop40
 90
        0
102
RTVSPost2010PropOp40
 70
     1
102
RTVSPost2010Prop41ColorIndex
 90
       18
102
RTVSPost2010Prop41ColorRGB
 90
        0
102
RTVSPost2010PropOp41
 70
     1
102
RTVSPost2010Prop42
 90
       50
102
RTVSPost2010PropOp42
 70
     1
102
RTVSPost2010Prop43
 90
        3
102
RTVSPost2010PropOp43
 70
     1
102
RTVSPost2010Prop44ColorIndex
 90
        5
102
RTVSPost2010Prop44ColorRGB
 90
      255
102
RTVSPost2010PropOp44
 70
     1
102
RTVSPost2010Prop45
280
     0
102
RTVSPost2010PropOp45
 70
     1
102
RTVSPost2010Prop46
 90
       50
102
RTVSPost2010PropOp46
 70
     1
102
RTVSPost2010Prop47
 90
       50
102
RTVSPost2010PropOp47
 70
     1
102
RTVSPost2010Prop48
 90
       50
102
RTVSPost2010PropOp48
 70
     1
102
RTVSPost2010Prop49
280
     0
102
RTVSPost2010PropOp49
 70
     1
102
RTVSPost2010Prop50
 90
       50
102
RTVSPost2010PropOp50
 70
     1
102
RTVSPost2010Prop51ColorIndex
 90
      256
102
RTVSPost2010Prop51ColorRGB
 90
-16777216
102
RTVSPost2010PropOp51
 70
     0
102
RTVSPost2010Prop52
140
1.0
102
RTVSPost2010PropOp52
 70
     0
102
RTVSPost2010Prop53
 90
        2
102
RTVSPost2010PropOp53
 70
     1
102
RTVSPost2010Prop54
  1
strokes_ogs.tif
102
RTVSPost2010PropOp54
 70
     1
102
RTVSPost2010Prop55
280
     0
102
RTVSPost2010PropOp55
 70
     1
102
RTVSPost2010Prop56
140
1.0
102
RTVSPost2010PropOp56
 70
     1
102
RTVSPost2010Prop57
140
1.0
102
RTVSPost2010PropOp57
 70
     1
  0
XRECORD
  5
23B
102
{ACAD_REACTORS
330
23A
102
}
330
23A
100
AcDbXrecord
280
     1
102
RTVSPost2010Prop28
280
     0
102
RTVSPost2010PropOp28
 70
     1
102
RTVSPost2010Prop29
280
     1
102
RTVSPost2010PropOp29
 70
     1
102
RTVSPost2010Prop30
280
     1
102
RTVSPost2010PropOp30
 70
     1
102
RTVSPost2010Prop31
280
     0
102
RTVSPost2010PropOp31
 70
     1
102
RTVSPost2010Prop32
280
     0
102
RTVSPost2010PropOp32
 70
     1
102
RTVSPost2010Prop33
280
     0
102
RTVSPost2010PropOp33
 70
     1
102
RTVSPost2010Prop34
280
     0
102
RTVSPost2010PropOp34
 70
     1
102
RTVSPost2010Prop35
280
     0
102
RTVSPost2010PropOp35
 70
     1
102
RTVSPost2010Prop36
280
     0
102
RTVSPost2010PropOp36
 70
     1
102
RTVSPost2010Prop37
 90
       50
102
RTVSPost2010PropOp37
 70
     1
102
RTVSPost2010Prop38
140
0.0
102
RTVSPost2010PropOp38
 70
     1
102
RTVSPost2010Prop39
140
1.0
102
RTVSPost2010PropOp39
 70
     1
102
RTVSPost2010Prop40
 90
        0
102
RTVSPost2010PropOp40
 70
     1
102
RTVSPost2010Prop41ColorIndex
 90
       18
102
RTVSPost2010Prop41ColorRGB
 90
        0
102
RTVSPost2010PropOp41
 70
     1
102
RTVSPost2010Prop42
 90
       50
102
RTVSPost2010PropOp42
 70
     1
102
RTVSPost2010Prop43
 90
        3
102
RTVSPost2010PropOp43
 70
     1
102
RTVSPost2010Prop44ColorIndex
 90
        5
102
RTVSPost2010Prop44ColorRGB
 90
      255
102
RTVSPost2010PropOp44
 70
     1
102
RTVSPost2010Prop45
280
     0
102
RTVSPost2010PropOp45
 70
     1
102
RTVSPost2010Prop46
 90
       50
102
RTVSPost2010PropOp46
 70
     1
102
RTVSPost2010Prop47
 90
       50
102
RTVSPost2010PropOp47
 70
     1
102
RTVSPost2010Prop48
 90
       50
102
RTVSPost2010PropOp48
 70
     1
102
RTVSPost2010Prop49
280
     0
102
RTVSPost2010PropOp49
 70
     1
102
RTVSPost2010Prop50
 90
       50
102
RTVSPost2010PropOp50
 70
     1
102
RTVSPost2010Prop51ColorIndex
 90
      256
102
RTVSPost2010Prop51ColorRGB
 90
-16777216
102
RTVSPost2010PropOp51
 70
     0
102
RTVSPost2010Prop52
140
1.0
102
RTVSPost2010PropOp52
 70
     0
102
RTVSPost2010Prop53
 90
        2
102
RTVSPost2010PropOp53
 70
     1
102
RTVSPost2010Prop54
  1
strokes_ogs.tif
102
RTVSPost2010PropOp54
 70
     1
102
RTVSPost2010Prop55
280
     0
102
RTVSPost2010PropOp55
 70
     1
102
RTVSPost2010Prop56
140
1.0
102
RTVSPost2010PropOp56
 70
     1
102
RTVSPost2010Prop57
140
1.0
102
RTVSPost2010PropOp57
 70
     1
  0
XRECORD
  5
243
102
{ACAD_REACTORS
330
242
102
}
330
242
100
AcDbXrecord
280
     1
102
RTVSPost2010Prop28
280
     0
102
RTVSPost2010PropOp28
 70
     1
102
RTVSPost2010Prop29
280
     1
102
RTVSPost2010PropOp29
 70
     1
102
RTVSPost2010Prop30
280
     1
102
RTVSPost2010PropOp30
 70
     1
102
RTVSPost2010Prop31
280
     0
102
RTVSPost2010PropOp31
 70
     1
102
RTVSPost2010Prop32
280
     0
102
RTVSPost2010PropOp32
 70
     1
102
RTVSPost2010Prop33
280
     0
102
RTVSPost2010PropOp33
 70
     1
102
RTVSPost2010Prop34
280
     0
102
RTVSPost2010PropOp34
 70
     1
102
RTVSPost2010Prop35
280
     0
102
RTVSPost2010PropOp35
 70
     1
102
RTVSPost2010Prop36
280
     0
102
RTVSPost2010PropOp36
 70
     1
102
RTVSPost2010Prop37
 90
       50
102
RTVSPost2010PropOp37
 70
     1
102
RTVSPost2010Prop38
140
0.0
102
RTVSPost2010PropOp38
 70
     1
102
RTVSPost2010Prop39
140
1.0
102
RTVSPost2010PropOp39
 70
     1
102
RTVSPost2010Prop40
 90
        0
102
RTVSPost2010PropOp40
 70
     1
102
RTVSPost2010Prop41ColorIndex
 90
       18
102
RTVSPost2010Prop41ColorRGB
 90
        0
102
RTVSPost2010PropOp41
 70
     1
102
RTVSPost2010Prop42
 90
       50
102
RTVSPost2010PropOp42
 70
     1
102
RTVSPost2010Prop43
 90
        3
102
RTVSPost2010PropOp43
 70
     1
102
RTVSPost2010Prop44ColorIndex
 90
        5
102
RTVSPost2010Prop44ColorRGB
 90
      255
102
RTVSPost2010PropOp44
 70
     1
102
RTVSPost2010Prop45
280
     0
102
RTVSPost2010PropOp45
 70
     1
102
RTVSPost2010Prop46
 90
       50
102
RTVSPost2010PropOp46
 70
     1
102
RTVSPost2010Prop47
 90
       50
102
RTVSPost2010PropOp47
 70
     1
102
RTVSPost2010Prop48
 90
       50
102
RTVSPost2010PropOp48
 70
     1
102
RTVSPost2010Prop49
280
     0
102
RTVSPost2010PropOp49
 70
     1
102
RTVSPost2010Prop50
 90
       50
102
RTVSPost2010PropOp50
 70
     1
102
RTVSPost2010Prop51ColorIndex
 90
      256
102
RTVSPost2010Prop51ColorRGB
 90
-16777216
102
RTVSPost2010PropOp51
 70
     0
102
RTVSPost2010Prop52
140
1.0
102
RTVSPost2010PropOp52
 70
     0
102
RTVSPost2010Prop53
 90
        2
102
RTVSPost2010PropOp53
 70
     1
102
RTVSPost2010Prop54
  1
strokes_ogs.tif
102
RTVSPost2010PropOp54
 70
     1
102
RTVSPost2010Prop55
280
     0
102
RTVSPost2010PropOp55
 70
     1
102
RTVSPost2010Prop56
140
1.0
102
RTVSPost2010PropOp56
 70
     1
102
RTVSPost2010Prop57
140
1.0
102
RTVSPost2010PropOp57
 70
     1
  0
XRECORD
  5
24B
102
{ACAD_REACTORS
330
24A
102
}
330
24A
100
AcDbXrecord
280
     1
102
RTVSPost2010Prop28
280
     0
102
RTVSPost2010PropOp28
 70
     1
102
RTVSPost2010Prop29
280
     1
102
RTVSPost2010PropOp29
 70
     1
102
RTVSPost2010Prop30
280
     1
102
RTVSPost2010PropOp30
 70
     1
102
RTVSPost2010Prop31
280
     0
102
RTVSPost2010PropOp31
 70
     1
102
RTVSPost2010Prop32
280
     0
102
RTVSPost2010PropOp32
 70
     1
102
RTVSPost2010Prop33
280
     0
102
RTVSPost2010PropOp33
 70
     1
102
RTVSPost2010Prop34
280
     0
102
RTVSPost2010PropOp34
 70
     1
102
RTVSPost2010Prop35
280
     0
102
RTVSPost2010PropOp35
 70
     1
102
RTVSPost2010Prop36
280
     0
102
RTVSPost2010PropOp36
 70
     1
102
RTVSPost2010Prop37
 90
       50
102
RTVSPost2010PropOp37
 70
     1
102
RTVSPost2010Prop38
140
0.0
102
RTVSPost2010PropOp38
 70
     1
102
RTVSPost2010Prop39
140
1.0
102
RTVSPost2010PropOp39
 70
     1
102
RTVSPost2010Prop40
 90
        0
102
RTVSPost2010PropOp40
 70
     1
102
RTVSPost2010Prop41ColorIndex
 90
       18
102
RTVSPost2010Prop41ColorRGB
 90
        0
102
RTVSPost2010PropOp41
 70
     1
102
RTVSPost2010Prop42
 90
       50
102
RTVSPost2010PropOp42
 70
     1
102
RTVSPost2010Prop43
 90
        3
102
RTVSPost2010PropOp43
 70
     1
102
RTVSPost2010Prop44ColorIndex
 90
        5
102
RTVSPost2010Prop44ColorRGB
 90
      255
102
RTVSPost2010PropOp44
 70
     1
102
RTVSPost2010Prop45
280
     0
102
RTVSPost2010PropOp45
 70
     1
102
RTVSPost2010Prop46
 90
       50
102
RTVSPost2010PropOp46
 70
     1
102
RTVSPost2010Prop47
 90
       50
102
RTVSPost2010PropOp47
 70
     1
102
RTVSPost2010Prop48
 90
       50
102
RTVSPost2010PropOp48
 70
     1
102
RTVSPost2010Prop49
280
     0
102
RTVSPost2010PropOp49
 70
     1
102
RTVSPost2010Prop50
 90
       50
102
RTVSPost2010PropOp50
 70
     1
102
RTVSPost2010Prop51ColorIndex
 90
      256
102
RTVSPost2010Prop51ColorRGB
 90
-16777216
102
RTVSPost2010PropOp51
 70
     0
102
RTVSPost2010Prop52
140
1.0
102
RTVSPost2010PropOp52
 70
     0
102
RTVSPost2010Prop53
 90
        2
102
RTVSPost2010PropOp53
 70
     1
102
RTVSPost2010Prop54
  1
strokes_ogs.tif
102
RTVSPost2010PropOp54
 70
     1
102
RTVSPost2010Prop55
280
     0
102
RTVSPost2010PropOp55
 70
     1
102
RTVSPost2010Prop56
140
1.0
102
RTVSPost2010PropOp56
 70
     1
102
RTVSPost2010Prop57
140
1.0
102
RTVSPost2010PropOp57
 70
     1
  0
XRECORD
  5
23F
102
{ACAD_REACTORS
330
23E
102
}
330
23E
100
AcDbXrecord
280
     1
102
RTVSPost2010Prop28
280
     0
102
RTVSPost2010PropOp28
 70
     1
102
RTVSPost2010Prop29
280
     1
102
RTVSPost2010PropOp29
 70
     1
102
RTVSPost2010Prop30
280
     1
102
RTVSPost2010PropOp30
 70
     1
102
RTVSPost2010Prop31
280
     0
102
RTVSPost2010PropOp31
 70
     1
102
RTVSPost2010Prop32
280
     0
102
RTVSPost2010PropOp32
 70
     1
102
RTVSPost2010Prop33
280
     0
102
RTVSPost2010PropOp33
 70
     1
102
RTVSPost2010Prop34
280
     0
102
RTVSPost2010PropOp34
 70
     1
102
RTVSPost2010Prop35
280
     0
102
RTVSPost2010PropOp35
 70
     1
102
RTVSPost2010Prop36
280
     0
102
RTVSPost2010PropOp36
 70
     1
102
RTVSPost2010Prop37
 90
       50
102
RTVSPost2010PropOp37
 70
     1
102
RTVSPost2010Prop38
140
0.0
102
RTVSPost2010PropOp38
 70
     1
102
RTVSPost2010Prop39
140
1.0
102
RTVSPost2010PropOp39
 70
     1
102
RTVSPost2010Prop40
 90
        0
102
RTVSPost2010PropOp40
 70
     1
102
RTVSPost2010Prop41ColorIndex
 90
       18
102
RTVSPost2010Prop41ColorRGB
 90
        0
102
RTVSPost2010PropOp41
 70
     1
102
RTVSPost2010Prop42
 90
       50
102
RTVSPost2010PropOp42
 70
     1
102
RTVSPost2010Prop43
 90
        3
102
RTVSPost2010PropOp43
 70
     1
102
RTVSPost2010Prop44ColorIndex
 90
        5
102
RTVSPost2010Prop44ColorRGB
 90
      255
102
RTVSPost2010PropOp44
 70
     1
102
RTVSPost2010Prop45
280
     0
102
RTVSPost2010PropOp45
 70
     1
102
RTVSPost2010Prop46
 90
       50
102
RTVSPost2010PropOp46
 70
     1
102
RTVSPost2010Prop47
 90
       50
102
RTVSPost2010PropOp47
 70
     1
102
RTVSPost2010Prop48
 90
       50
102
RTVSPost2010PropOp48
 70
     1
102
RTVSPost2010Prop49
280
     0
102
RTVSPost2010PropOp49
 70
     1
102
RTVSPost2010Prop50
 90
       50
102
RTVSPost2010PropOp50
 70
     1
102
RTVSPost2010Prop51ColorIndex
 90
      256
102
RTVSPost2010Prop51ColorRGB
 90
-16777216
102
RTVSPost2010PropOp51
 70
     0
102
RTVSPost2010Prop52
140
1.0
102
RTVSPost2010PropOp52
 70
     0
102
RTVSPost2010Prop53
 90
        2
102
RTVSPost2010PropOp53
 70
     1
102
RTVSPost2010Prop54
  1
strokes_ogs.tif
102
RTVSPost2010PropOp54
 70
     1
102
RTVSPost2010Prop55
280
     0
102
RTVSPost2010PropOp55
 70
     1
102
RTVSPost2010Prop56
140
1.0
102
RTVSPost2010PropOp56
 70
     1
102
RTVSPost2010Prop57
140
1.0
102
RTVSPost2010PropOp57
 70
     1
  0
XRECORD
  5
241
102
{ACAD_REACTORS
330
240
102
}
330
240
100
AcDbXrecord
280
     1
102
RTVSPost2010Prop28
280
     0
102
RTVSPost2010PropOp28
 70
     1
102
RTVSPost2010Prop29
280
     1
102
RTVSPost2010PropOp29
 70
     1
102
RTVSPost2010Prop30
280
     1
102
RTVSPost2010PropOp30
 70
     1
102
RTVSPost2010Prop31
280
     0
102
RTVSPost2010PropOp31
 70
     1
102
RTVSPost2010Prop32
280
     0
102
RTVSPost2010PropOp32
 70
     1
102
RTVSPost2010Prop33
280
     0
102
RTVSPost2010PropOp33
 70
     1
102
RTVSPost2010Prop34
280
     0
102
RTVSPost2010PropOp34
 70
     1
102
RTVSPost2010Prop35
280
     0
102
RTVSPost2010PropOp35
 70
     1
102
RTVSPost2010Prop36
280
     0
102
RTVSPost2010PropOp36
 70
     1
102
RTVSPost2010Prop37
 90
       50
102
RTVSPost2010PropOp37
 70
     1
102
RTVSPost2010Prop38
140
0.0
102
RTVSPost2010PropOp38
 70
     1
102
RTVSPost2010Prop39
140
1.0
102
RTVSPost2010PropOp39
 70
     1
102
RTVSPost2010Prop40
 90
        0
102
RTVSPost2010PropOp40
 70
     1
102
RTVSPost2010Prop41ColorIndex
 90
       18
102
RTVSPost2010Prop41ColorRGB
 90
        0
102
RTVSPost2010PropOp41
 70
     1
102
RTVSPost2010Prop42
 90
       50
102
RTVSPost2010PropOp42
 70
     1
102
RTVSPost2010Prop43
 90
        3
102
RTVSPost2010PropOp43
 70
     1
102
RTVSPost2010Prop44ColorIndex
 90
        5
102
RTVSPost2010Prop44ColorRGB
 90
      255
102
RTVSPost2010PropOp44
 70
     1
102
RTVSPost2010Prop45
280
     0
102
RTVSPost2010PropOp45
 70
     1
102
RTVSPost2010Prop46
 90
       50
102
RTVSPost2010PropOp46
 70
     1
102
RTVSPost2010Prop47
 90
       50
102
RTVSPost2010PropOp47
 70
     1
102
RTVSPost2010Prop48
 90
       50
102
RTVSPost2010PropOp48
 70
     1
102
RTVSPost2010Prop49
280
     0
102
RTVSPost2010PropOp49
 70
     1
102
RTVSPost2010Prop50
 90
       50
102
RTVSPost2010PropOp50
 70
     1
102
RTVSPost2010Prop51ColorIndex
 90
      256
102
RTVSPost2010Prop51ColorRGB
 90
-16777216
102
RTVSPost2010PropOp51
 70
     0
102
RTVSPost2010Prop52
140
1.0
102
RTVSPost2010PropOp52
 70
     0
102
RTVSPost2010Prop53
 90
        2
102
RTVSPost2010PropOp53
 70
     1
102
RTVSPost2010Prop54
  1
strokes_ogs.tif
102
RTVSPost2010PropOp54
 70
     1
102
RTVSPost2010Prop55
280
     0
102
RTVSPost2010PropOp55
 70
     1
102
RTVSPost2010Prop56
140
1.0
102
RTVSPost2010PropOp56
 70
     1
102
RTVSPost2010Prop57
140
1.0
102
RTVSPost2010PropOp57
 70
     1
  0
XRECORD
  5
251
102
{ACAD_REACTORS
330
250
102
}
330
250
100
AcDbXrecord
280
     1
102
RTVSPost2010Prop28
280
     0
102
RTVSPost2010PropOp28
 70
     0
102
RTVSPost2010Prop29
280
     1
102
RTVSPost2010PropOp29
 70
     0
102
RTVSPost2010Prop30
280
     1
102
RTVSPost2010PropOp30
 70
     0
102
RTVSPost2010Prop31
280
     0
102
RTVSPost2010PropOp31
 70
     0
102
RTVSPost2010Prop32
280
     0
102
RTVSPost2010PropOp32
 70
     0
102
RTVSPost2010Prop33
280
     0
102
RTVSPost2010PropOp33
 70
     0
102
RTVSPost2010Prop34
280
     0
102
RTVSPost2010PropOp34
 70
     0
102
RTVSPost2010Prop35
280
     0
102
RTVSPost2010PropOp35
 70
     0
102
RTVSPost2010Prop36
280
     0
102
RTVSPost2010PropOp36
 70
     0
102
RTVSPost2010Prop37
 90
       50
102
RTVSPost2010PropOp37
 70
     0
102
RTVSPost2010Prop38
140
0.0
102
RTVSPost2010PropOp38
 70
     0
102
RTVSPost2010Prop39
140
1.0
102
RTVSPost2010PropOp39
 70
     0
102
RTVSPost2010Prop40
 90
        0
102
RTVSPost2010PropOp40
 70
     0
102
RTVSPost2010Prop41ColorIndex
 90
       18
102
RTVSPost2010Prop41ColorRGB
 90
        0
102
RTVSPost2010PropOp41
 70
     0
102
RTVSPost2010Prop42
 90
       50
102
RTVSPost2010PropOp42
 70
     0
102
RTVSPost2010Prop43
 90
        3
102
RTVSPost2010PropOp43
 70
     0
102
RTVSPost2010Prop44ColorIndex
 90
        5
102
RTVSPost2010Prop44ColorRGB
 90
      255
102
RTVSPost2010PropOp44
 70
     0
102
RTVSPost2010Prop45
280
     0
102
RTVSPost2010PropOp45
 70
     0
102
RTVSPost2010Prop46
 90
       50
102
RTVSPost2010PropOp46
 70
     0
102
RTVSPost2010Prop47
 90
       50
102
RTVSPost2010PropOp47
 70
     0
102
RTVSPost2010Prop48
 90
       50
102
RTVSPost2010PropOp48
 70
     0
102
RTVSPost2010Prop49
280
     0
102
RTVSPost2010PropOp49
 70
     0
102
RTVSPost2010Prop50
 90
       50
102
RTVSPost2010PropOp50
 70
     0
102
RTVSPost2010Prop51ColorIndex
 90
      256
102
RTVSPost2010Prop51ColorRGB
 90
-16777216
102
RTVSPost2010PropOp51
 70
     0
102
RTVSPost2010Prop52
140
1.0
102
RTVSPost2010PropOp52
 70
     0
102
RTVSPost2010Prop53
 90
        2
102
RTVSPost2010PropOp53
 70
     0
102
RTVSPost2010Prop54
  1
strokes_ogs.tif
102
RTVSPost2010PropOp54
 70
     0
102
RTVSPost2010Prop55
280
     0
102
RTVSPost2010PropOp55
 70
     0
102
RTVSPost2010Prop56
140
1.0
102
RTVSPost2010PropOp56
 70
     0
102
RTVSPost2010Prop57
140
1.0
102
RTVSPost2010PropOp57
 70
     0
  0
XRECORD
  5
249
102
{ACAD_REACTORS
330
248
102
}
330
248
100
AcDbXrecord
280
     1
102
RTVSPost2010Prop28
280
     0
102
RTVSPost2010PropOp28
 70
     1
102
RTVSPost2010Prop29
280
     1
102
RTVSPost2010PropOp29
 70
     1
102
RTVSPost2010Prop30
280
     1
102
RTVSPost2010PropOp30
 70
     1
102
RTVSPost2010Prop31
280
     0
102
RTVSPost2010PropOp31
 70
     1
102
RTVSPost2010Prop32
280
     0
102
RTVSPost2010PropOp32
 70
     1
102
RTVSPost2010Prop33
280
     0
102
RTVSPost2010PropOp33
 70
     1
102
RTVSPost2010Prop34
280
     0
102
RTVSPost2010PropOp34
 70
     1
102
RTVSPost2010Prop35
280
     0
102
RTVSPost2010PropOp35
 70
     1
102
RTVSPost2010Prop36
280
     0
102
RTVSPost2010PropOp36
 70
     1
102
RTVSPost2010Prop37
 90
       50
102
RTVSPost2010PropOp37
 70
     1
102
RTVSPost2010Prop38
140
0.0
102
RTVSPost2010PropOp38
 70
     1
102
RTVSPost2010Prop39
140
1.0
102
RTVSPost2010PropOp39
 70
     1
102
RTVSPost2010Prop40
 90
        0
102
RTVSPost2010PropOp40
 70
     1
102
RTVSPost2010Prop41ColorIndex
 90
       18
102
RTVSPost2010Prop41ColorRGB
 90
        0
102
RTVSPost2010PropOp41
 70
     1
102
RTVSPost2010Prop42
 90
       50
102
RTVSPost2010PropOp42
 70
     1
102
RTVSPost2010Prop43
 90
        3
102
RTVSPost2010PropOp43
 70
     1
102
RTVSPost2010Prop44ColorIndex
 90
        5
102
RTVSPost2010Prop44ColorRGB
 90
      255
102
RTVSPost2010PropOp44
 70
     1
102
RTVSPost2010Prop45
280
     0
102
RTVSPost2010PropOp45
 70
     1
102
RTVSPost2010Prop46
 90
       50
102
RTVSPost2010PropOp46
 70
     1
102
RTVSPost2010Prop47
 90
       50
102
RTVSPost2010PropOp47
 70
     1
102
RTVSPost2010Prop48
 90
       50
102
RTVSPost2010PropOp48
 70
     1
102
RTVSPost2010Prop49
280
     0
102
RTVSPost2010PropOp49
 70
     1
102
RTVSPost2010Prop50
 90
       50
102
RTVSPost2010PropOp50
 70
     1
102
RTVSPost2010Prop51ColorIndex
 90
      256
102
RTVSPost2010Prop51ColorRGB
 90
-16777216
102
RTVSPost2010PropOp51
 70
     0
102
RTVSPost2010Prop52
140
1.0
102
RTVSPost2010PropOp52
 70
     0
102
RTVSPost2010Prop53
 90
        2
102
RTVSPost2010PropOp53
 70
     1
102
RTVSPost2010Prop54
  1
strokes_ogs.tif
102
RTVSPost2010PropOp54
 70
     1
102
RTVSPost2010Prop55
280
     0
102
RTVSPost2010PropOp55
 70
     1
102
RTVSPost2010Prop56
140
1.0
102
RTVSPost2010PropOp56
 70
     1
102
RTVSPost2010Prop57
140
1.0
102
RTVSPost2010PropOp57
 70
     1
  0
XRECORD
  5
22D
102
{ACAD_REACTORS
330
22C
102
}
330
22C
100
AcDbXrecord
280
     1
102
RTVSPost2010Prop28
280
     0
102
RTVSPost2010PropOp28
 70
     1
102
RTVSPost2010Prop29
280
     1
102
RTVSPost2010PropOp29
 70
     1
102
RTVSPost2010Prop30
280
     1
102
RTVSPost2010PropOp30
 70
     1
102
RTVSPost2010Prop31
280
     0
102
RTVSPost2010PropOp31
 70
     1
102
RTVSPost2010Prop32
280
     0
102
RTVSPost2010PropOp32
 70
     1
102
RTVSPost2010Prop33
280
     0
102
RTVSPost2010PropOp33
 70
     1
102
RTVSPost2010Prop34
280
     0
102
RTVSPost2010PropOp34
 70
     1
102
RTVSPost2010Prop35
280
     0
102
RTVSPost2010PropOp35
 70
     1
102
RTVSPost2010Prop36
280
     0
102
RTVSPost2010PropOp36
 70
     1
102
RTVSPost2010Prop37
 90
       50
102
RTVSPost2010PropOp37
 70
     1
102
RTVSPost2010Prop38
140
0.0
102
RTVSPost2010PropOp38
 70
     1
102
RTVSPost2010Prop39
140
1.0
102
RTVSPost2010PropOp39
 70
     1
102
RTVSPost2010Prop40
 90
        0
102
RTVSPost2010PropOp40
 70
     1
102
RTVSPost2010Prop41ColorIndex
 90
       18
102
RTVSPost2010Prop41ColorRGB
 90
        0
102
RTVSPost2010PropOp41
 70
     1
102
RTVSPost2010Prop42
 90
       50
102
RTVSPost2010PropOp42
 70
     1
102
RTVSPost2010Prop43
 90
        3
102
RTVSPost2010PropOp43
 70
     1
102
RTVSPost2010Prop44ColorIndex
 90
        5
102
RTVSPost2010Prop44ColorRGB
 90
      255
102
RTVSPost2010PropOp44
 70
     1
102
RTVSPost2010Prop45
280
     0
102
RTVSPost2010PropOp45
 70
     1
102
RTVSPost2010Prop46
 90
       50
102
RTVSPost2010PropOp46
 70
     1
102
RTVSPost2010Prop47
 90
       50
102
RTVSPost2010PropOp47
 70
     1
102
RTVSPost2010Prop48
 90
       50
102
RTVSPost2010PropOp48
 70
     1
102
RTVSPost2010Prop49
280
     0
102
RTVSPost2010PropOp49
 70
     1
102
RTVSPost2010Prop50
 90
       50
102
RTVSPost2010PropOp50
 70
     1
102
RTVSPost2010Prop51ColorIndex
 90
      256
102
RTVSPost2010Prop51ColorRGB
 90
-16777216
102
RTVSPost2010PropOp51
 70
     0
102
RTVSPost2010Prop52
140
1.0
102
RTVSPost2010PropOp52
 70
     0
102
RTVSPost2010Prop53
 90
        2
102
RTVSPost2010PropOp53
 70
     1
102
RTVSPost2010Prop54
  1
strokes_ogs.tif
102
RTVSPost2010PropOp54
 70
     1
102
RTVSPost2010Prop55
280
     0
102
RTVSPost2010PropOp55
 70
     1
102
RTVSPost2010Prop56
140
1.0
102
RTVSPost2010PropOp56
 70
     1
102
RTVSPost2010Prop57
140
1.0
102
RTVSPost2010PropOp57
 70
     1
  0
XRECORD
  5
22F
102
{ACAD_REACTORS
330
22E
102
}
330
22E
100
AcDbXrecord
280
     1
102
RTVSPost2010Prop28
280
     0
102
RTVSPost2010PropOp28
 70
     1
102
RTVSPost2010Prop29
280
     1
102
RTVSPost2010PropOp29
 70
     1
102
RTVSPost2010Prop30
280
     1
102
RTVSPost2010PropOp30
 70
     1
102
RTVSPost2010Prop31
280
     0
102
RTVSPost2010PropOp31
 70
     1
102
RTVSPost2010Prop32
280
     0
102
RTVSPost2010PropOp32
 70
     1
102
RTVSPost2010Prop33
280
     0
102
RTVSPost2010PropOp33
 70
     1
102
RTVSPost2010Prop34
280
     0
102
RTVSPost2010PropOp34
 70
     1
102
RTVSPost2010Prop35
280
     0
102
RTVSPost2010PropOp35
 70
     1
102
RTVSPost2010Prop36
280
     0
102
RTVSPost2010PropOp36
 70
     1
102
RTVSPost2010Prop37
 90
       50
102
RTVSPost2010PropOp37
 70
     1
102
RTVSPost2010Prop38
140
0.0
102
RTVSPost2010PropOp38
 70
     1
102
RTVSPost2010Prop39
140
1.0
102
RTVSPost2010PropOp39
 70
     1
102
RTVSPost2010Prop40
 90
        0
102
RTVSPost2010PropOp40
 70
     1
102
RTVSPost2010Prop41ColorIndex
 90
       18
102
RTVSPost2010Prop41ColorRGB
 90
        0
102
RTVSPost2010PropOp41
 70
     1
102
RTVSPost2010Prop42
 90
       50
102
RTVSPost2010PropOp42
 70
     1
102
RTVSPost2010Prop43
 90
        3
102
RTVSPost2010PropOp43
 70
     1
102
RTVSPost2010Prop44ColorIndex
 90
        5
102
RTVSPost2010Prop44ColorRGB
 90
      255
102
RTVSPost2010PropOp44
 70
     1
102
RTVSPost2010Prop45
280
     0
102
RTVSPost2010PropOp45
 70
     1
102
RTVSPost2010Prop46
 90
       50
102
RTVSPost2010PropOp46
 70
     1
102
RTVSPost2010Prop47
 90
       50
102
RTVSPost2010PropOp47
 70
     1
102
RTVSPost2010Prop48
 90
       50
102
RTVSPost2010PropOp48
 70
     1
102
RTVSPost2010Prop49
280
     0
102
RTVSPost2010PropOp49
 70
     1
102
RTVSPost2010Prop50
 90
       50
102
RTVSPost2010PropOp50
 70
     1
102
RTVSPost2010Prop51ColorIndex
 90
      256
102
RTVSPost2010Prop51ColorRGB
 90
-16777216
102
RTVSPost2010PropOp51
 70
     0
102
RTVSPost2010Prop52
140
1.0
102
RTVSPost2010PropOp52
 70
     0
102
RTVSPost2010Prop53
 90
        2
102
RTVSPost2010PropOp53
 70
     1
102
RTVSPost2010Prop54
  1
strokes_ogs.tif
102
RTVSPost2010PropOp54
 70
     1
102
RTVSPost2010Prop55
280
     0
102
RTVSPost2010PropOp55
 70
     1
102
RTVSPost2010Prop56
140
1.0
102
RTVSPost2010PropOp56
 70
     1
102
RTVSPost2010Prop57
140
1.0
102
RTVSPost2010PropOp57
 70
     1
  0
XRECORD
  5
231
102
{ACAD_REACTORS
330
230
102
}
330
230
100
AcDbXrecord
280
     1
102
RTVSPost2010Prop28
280
     0
102
RTVSPost2010PropOp28
 70
     1
102
RTVSPost2010Prop29
280
     1
102
RTVSPost2010PropOp29
 70
     1
102
RTVSPost2010Prop30
280
     1
102
RTVSPost2010PropOp30
 70
     1
102
RTVSPost2010Prop31
280
     0
102
RTVSPost2010PropOp31
 70
     1
102
RTVSPost2010Prop32
280
     0
102
RTVSPost2010PropOp32
 70
     1
102
RTVSPost2010Prop33
280
     0
102
RTVSPost2010PropOp33
 70
     1
102
RTVSPost2010Prop34
280
     0
102
RTVSPost2010PropOp34
 70
     1
102
RTVSPost2010Prop35
280
     0
102
RTVSPost2010PropOp35
 70
     1
102
RTVSPost2010Prop36
280
     0
102
RTVSPost2010PropOp36
 70
     1
102
RTVSPost2010Prop37
 90
       50
102
RTVSPost2010PropOp37
 70
     1
102
RTVSPost2010Prop38
140
0.0
102
RTVSPost2010PropOp38
 70
     1
102
RTVSPost2010Prop39
140
1.0
102
RTVSPost2010PropOp39
 70
     1
102
RTVSPost2010Prop40
 90
        0
102
RTVSPost2010PropOp40
 70
     1
102
RTVSPost2010Prop41ColorIndex
 90
       18
102
RTVSPost2010Prop41ColorRGB
 90
        0
102
RTVSPost2010PropOp41
 70
     1
102
RTVSPost2010Prop42
 90
       50
102
RTVSPost2010PropOp42
 70
     1
102
RTVSPost2010Prop43
 90
        3
102
RTVSPost2010PropOp43
 70
     1
102
RTVSPost2010Prop44ColorIndex
 90
        5
102
RTVSPost2010Prop44ColorRGB
 90
      255
102
RTVSPost2010PropOp44
 70
     1
102
RTVSPost2010Prop45
280
     0
102
RTVSPost2010PropOp45
 70
     1
102
RTVSPost2010Prop46
 90
       50
102
RTVSPost2010PropOp46
 70
     1
102
RTVSPost2010Prop47
 90
       50
102
RTVSPost2010PropOp47
 70
     1
102
RTVSPost2010Prop48
 90
       50
102
RTVSPost2010PropOp48
 70
     1
102
RTVSPost2010Prop49
280
     0
102
RTVSPost2010PropOp49
 70
     1
102
RTVSPost2010Prop50
 90
       50
102
RTVSPost2010PropOp50
 70
     1
102
RTVSPost2010Prop51ColorIndex
 90
      256
102
RTVSPost2010Prop51ColorRGB
 90
-16777216
102
RTVSPost2010PropOp51
 70
     0
102
RTVSPost2010Prop52
140
1.0
102
RTVSPost2010PropOp52
 70
     0
102
RTVSPost2010Prop53
 90
        2
102
RTVSPost2010PropOp53
 70
     1
102
RTVSPost2010Prop54
  1
strokes_ogs.tif
102
RTVSPost2010PropOp54
 70
     1
102
RTVSPost2010Prop55
280
     0
102
RTVSPost2010PropOp55
 70
     1
102
RTVSPost2010Prop56
140
1.0
102
RTVSPost2010PropOp56
 70
     1
102
RTVSPost2010Prop57
140
1.0
102
RTVSPost2010PropOp57
 70
     1
  0
XRECORD
  5
233
102
{ACAD_REACTORS
330
232
102
}
330
232
100
AcDbXrecord
280
     1
102
RTVSPost2010Prop28
280
     0
102
RTVSPost2010PropOp28
 70
     1
102
RTVSPost2010Prop29
280
     1
102
RTVSPost2010PropOp29
 70
     1
102
RTVSPost2010Prop30
280
     1
102
RTVSPost2010PropOp30
 70
     1
102
RTVSPost2010Prop31
280
     0
102
RTVSPost2010PropOp31
 70
     1
102
RTVSPost2010Prop32
280
     0
102
RTVSPost2010PropOp32
 70
     1
102
RTVSPost2010Prop33
280
     0
102
RTVSPost2010PropOp33
 70
     1
102
RTVSPost2010Prop34
280
     0
102
RTVSPost2010PropOp34
 70
     1
102
RTVSPost2010Prop35
280
     0
102
RTVSPost2010PropOp35
 70
     1
102
RTVSPost2010Prop36
280
     0
102
RTVSPost2010PropOp36
 70
     1
102
RTVSPost2010Prop37
 90
       50
102
RTVSPost2010PropOp37
 70
     1
102
RTVSPost2010Prop38
140
0.0
102
RTVSPost2010PropOp38
 70
     1
102
RTVSPost2010Prop39
140
1.0
102
RTVSPost2010PropOp39
 70
     1
102
RTVSPost2010Prop40
 90
        0
102
RTVSPost2010PropOp40
 70
     1
102
RTVSPost2010Prop41ColorIndex
 90
       18
102
RTVSPost2010Prop41ColorRGB
 90
        0
102
RTVSPost2010PropOp41
 70
     1
102
RTVSPost2010Prop42
 90
       50
102
RTVSPost2010PropOp42
 70
     1
102
RTVSPost2010Prop43
 90
        3
102
RTVSPost2010PropOp43
 70
     1
102
RTVSPost2010Prop44ColorIndex
 90
        5
102
RTVSPost2010Prop44ColorRGB
 90
      255
102
RTVSPost2010PropOp44
 70
     1
102
RTVSPost2010Prop45
280
     0
102
RTVSPost2010PropOp45
 70
     1
102
RTVSPost2010Prop46
 90
       50
102
RTVSPost2010PropOp46
 70
     1
102
RTVSPost2010Prop47
 90
       50
102
RTVSPost2010PropOp47
 70
     1
102
RTVSPost2010Prop48
 90
       50
102
RTVSPost2010PropOp48
 70
     1
102
RTVSPost2010Prop49
280
     0
102
RTVSPost2010PropOp49
 70
     1
102
RTVSPost2010Prop50
 90
       50
102
RTVSPost2010PropOp50
 70
     1
102
RTVSPost2010Prop51ColorIndex
 90
      256
102
RTVSPost2010Prop51ColorRGB
 90
-16777216
102
RTVSPost2010PropOp51
 70
     0
102
RTVSPost2010Prop52
140
1.0
102
RTVSPost2010PropOp52
 70
     0
102
RTVSPost2010Prop53
 90
        2
102
RTVSPost2010PropOp53
 70
     1
102
RTVSPost2010Prop54
  1
strokes_ogs.tif
102
RTVSPost2010PropOp54
 70
     1
102
RTVSPost2010Prop55
280
     0
102
RTVSPost2010PropOp55
 70
     1
102
RTVSPost2010Prop56
140
1.0
102
RTVSPost2010PropOp56
 70
     1
102
RTVSPost2010Prop57
140
1.0
102
RTVSPost2010PropOp57
 70
     1
  0
XRECORD
  5
239
102
{ACAD_REACTORS
330
238
102
}
330
238
100
AcDbXrecord
280
     1
102
RTVSPost2010Prop28
280
     0
102
RTVSPost2010PropOp28
 70
     1
102
RTVSPost2010Prop29
280
     1
102
RTVSPost2010PropOp29
 70
     1
102
RTVSPost2010Prop30
280
     1
102
RTVSPost2010PropOp30
 70
     1
102
RTVSPost2010Prop31
280
     0
102
RTVSPost2010PropOp31
 70
     1
102
RTVSPost2010Prop32
280
     0
102
RTVSPost2010PropOp32
 70
     1
102
RTVSPost2010Prop33
280
     0
102
RTVSPost2010PropOp33
 70
     1
102
RTVSPost2010Prop34
280
     0
102
RTVSPost2010PropOp34
 70
     1
102
RTVSPost2010Prop35
280
     0
102
RTVSPost2010PropOp35
 70
     1
102
RTVSPost2010Prop36
280
     0
102
RTVSPost2010PropOp36
 70
     1
102
RTVSPost2010Prop37
 90
       50
102
RTVSPost2010PropOp37
 70
     1
102
RTVSPost2010Prop38
140
0.0
102
RTVSPost2010PropOp38
 70
     1
102
RTVSPost2010Prop39
140
1.0
102
RTVSPost2010PropOp39
 70
     1
102
RTVSPost2010Prop40
 90
        0
102
RTVSPost2010PropOp40
 70
     1
102
RTVSPost2010Prop41ColorIndex
 90
       18
102
RTVSPost2010Prop41ColorRGB
 90
        0
102
RTVSPost2010PropOp41
 70
     1
102
RTVSPost2010Prop42
 90
       50
102
RTVSPost2010PropOp42
 70
     1
102
RTVSPost2010Prop43
 90
        3
102
RTVSPost2010PropOp43
 70
     1
102
RTVSPost2010Prop44ColorIndex
 90
        5
102
RTVSPost2010Prop44ColorRGB
 90
      255
102
RTVSPost2010PropOp44
 70
     1
102
RTVSPost2010Prop45
280
     0
102
RTVSPost2010PropOp45
 70
     1
102
RTVSPost2010Prop46
 90
       50
102
RTVSPost2010PropOp46
 70
     1
102
RTVSPost2010Prop47
 90
       50
102
RTVSPost2010PropOp47
 70
     1
102
RTVSPost2010Prop48
 90
       50
102
RTVSPost2010PropOp48
 70
     1
102
RTVSPost2010Prop49
280
     0
102
RTVSPost2010PropOp49
 70
     1
102
RTVSPost2010Prop50
 90
       50
102
RTVSPost2010PropOp50
 70
     1
102
RTVSPost2010Prop51ColorIndex
 90
      256
102
RTVSPost2010Prop51ColorRGB
 90
-16777216
102
RTVSPost2010PropOp51
 70
     0
102
RTVSPost2010Prop52
140
1.0
102
RTVSPost2010PropOp52
 70
     0
102
RTVSPost2010Prop53
 90
        2
102
RTVSPost2010PropOp53
 70
     1
102
RTVSPost2010Prop54
  1
strokes_ogs.tif
102
RTVSPost2010PropOp54
 70
     1
102
RTVSPost2010Prop55
280
     0
102
RTVSPost2010PropOp55
 70
     1
102
RTVSPost2010Prop56
140
1.0
102
RTVSPost2010PropOp56
 70
     1
102
RTVSPost2010Prop57
140
1.0
102
RTVSPost2010PropOp57
 70
     1
  0
XRECORD
  5
24D
102
{ACAD_REACTORS
330
24C
102
}
330
24C
100
AcDbXrecord
280
     1
102
RTVSPost2010Prop28
280
     0
102
RTVSPost2010PropOp28
 70
     0
102
RTVSPost2010Prop29
280
     1
102
RTVSPost2010PropOp29
 70
     0
102
RTVSPost2010Prop30
280
     1
102
RTVSPost2010PropOp30
 70
     0
102
RTVSPost2010Prop31
280
     0
102
RTVSPost2010PropOp31
 70
     0
102
RTVSPost2010Prop32
280
     0
102
RTVSPost2010PropOp32
 70
     0
102
RTVSPost2010Prop33
280
     0
102
RTVSPost2010PropOp33
 70
     0
102
RTVSPost2010Prop34
280
     0
102
RTVSPost2010PropOp34
 70
     0
102
RTVSPost2010Prop35
280
     0
102
RTVSPost2010PropOp35
 70
     0
102
RTVSPost2010Prop36
280
     0
102
RTVSPost2010PropOp36
 70
     0
102
RTVSPost2010Prop37
 90
       50
102
RTVSPost2010PropOp37
 70
     0
102
RTVSPost2010Prop38
140
0.0
102
RTVSPost2010PropOp38
 70
     0
102
RTVSPost2010Prop39
140
1.0
102
RTVSPost2010PropOp39
 70
     0
102
RTVSPost2010Prop40
 90
        0
102
RTVSPost2010PropOp40
 70
     0
102
RTVSPost2010Prop41ColorIndex
 90
       18
102
RTVSPost2010Prop41ColorRGB
 90
        0
102
RTVSPost2010PropOp41
 70
     0
102
RTVSPost2010Prop42
 90
       50
102
RTVSPost2010PropOp42
 70
     0
102
RTVSPost2010Prop43
 90
        3
102
RTVSPost2010PropOp43
 70
     0
102
RTVSPost2010Prop44ColorIndex
 90
        5
102
RTVSPost2010Prop44ColorRGB
 90
      255
102
RTVSPost2010PropOp44
 70
     0
102
RTVSPost2010Prop45
280
     0
102
RTVSPost2010PropOp45
 70
     0
102
RTVSPost2010Prop46
 90
       50
102
RTVSPost2010PropOp46
 70
     0
102
RTVSPost2010Prop47
 90
       50
102
RTVSPost2010PropOp47
 70
     0
102
RTVSPost2010Prop48
 90
       50
102
RTVSPost2010PropOp48
 70
     0
102
RTVSPost2010Prop49
280
     0
102
RTVSPost2010PropOp49
 70
     0
102
RTVSPost2010Prop50
 90
       50
102
RTVSPost2010PropOp50
 70
     0
102
RTVSPost2010Prop51ColorIndex
 90
      256
102
RTVSPost2010Prop51ColorRGB
 90
-16777216
102
RTVSPost2010PropOp51
 70
     0
102
RTVSPost2010Prop52
140
1.0
102
RTVSPost2010PropOp52
 70
     0
102
RTVSPost2010Prop53
 90
        2
102
RTVSPost2010PropOp53
 70
     0
102
RTVSPost2010Prop54
  1
strokes_ogs.tif
102
RTVSPost2010PropOp54
 70
     0
102
RTVSPost2010Prop55
280
     0
102
RTVSPost2010PropOp55
 70
     0
102
RTVSPost2010Prop56
140
1.0
102
RTVSPost2010PropOp56
 70
     0
102
RTVSPost2010Prop57
140
1.0
102
RTVSPost2010PropOp57
 70
     0
  0
XRECORD
  5
247
102
{ACAD_REACTORS
330
246
102
}
330
246
100
AcDbXrecord
280
     1
102
RTVSPost2010Prop28
280
     0
102
RTVSPost2010PropOp28
 70
     1
102
RTVSPost2010Prop29
280
     1
102
RTVSPost2010PropOp29
 70
     1
102
RTVSPost2010Prop30
280
     1
102
RTVSPost2010PropOp30
 70
     1
102
RTVSPost2010Prop31
280
     0
102
RTVSPost2010PropOp31
 70
     1
102
RTVSPost2010Prop32
280
     0
102
RTVSPost2010PropOp32
 70
     1
102
RTVSPost2010Prop33
280
     0
102
RTVSPost2010PropOp33
 70
     1
102
RTVSPost2010Prop34
280
     0
102
RTVSPost2010PropOp34
 70
     1
102
RTVSPost2010Prop35
280
     0
102
RTVSPost2010PropOp35
 70
     1
102
RTVSPost2010Prop36
280
     0
102
RTVSPost2010PropOp36
 70
     1
102
RTVSPost2010Prop37
 90
       50
102
RTVSPost2010PropOp37
 70
     1
102
RTVSPost2010Prop38
140
0.0
102
RTVSPost2010PropOp38
 70
     1
102
RTVSPost2010Prop39
140
1.0
102
RTVSPost2010PropOp39
 70
     1
102
RTVSPost2010Prop40
 90
        0
102
RTVSPost2010PropOp40
 70
     1
102
RTVSPost2010Prop41ColorIndex
 90
       18
102
RTVSPost2010Prop41ColorRGB
 90
        0
102
RTVSPost2010PropOp41
 70
     1
102
RTVSPost2010Prop42
 90
       50
102
RTVSPost2010PropOp42
 70
     1
102
RTVSPost2010Prop43
 90
        3
102
RTVSPost2010PropOp43
 70
     1
102
RTVSPost2010Prop44ColorIndex
 90
        5
102
RTVSPost2010Prop44ColorRGB
 90
      255
102
RTVSPost2010PropOp44
 70
     1
102
RTVSPost2010Prop45
280
     0
102
RTVSPost2010PropOp45
 70
     1
102
RTVSPost2010Prop46
 90
       50
102
RTVSPost2010PropOp46
 70
     1
102
RTVSPost2010Prop47
 90
       50
102
RTVSPost2010PropOp47
 70
     1
102
RTVSPost2010Prop48
 90
       50
102
RTVSPost2010PropOp48
 70
     1
102
RTVSPost2010Prop49
280
     0
102
RTVSPost2010PropOp49
 70
     1
102
RTVSPost2010Prop50
 90
       50
102
RTVSPost2010PropOp50
 70
     1
102
RTVSPost2010Prop51ColorIndex
 90
      256
102
RTVSPost2010Prop51ColorRGB
 90
-16777216
102
RTVSPost2010PropOp51
 70
     0
102
RTVSPost2010Prop52
140
1.0
102
RTVSPost2010PropOp52
 70
     0
102
RTVSPost2010Prop53
 90
        2
102
RTVSPost2010PropOp53
 70
     1
102
RTVSPost2010Prop54
  1
strokes_ogs.tif
102
RTVSPost2010PropOp54
 70
     1
102
RTVSPost2010Prop55
280
     0
102
RTVSPost2010PropOp55
 70
     1
102
RTVSPost2010Prop56
140
1.0
102
RTVSPost2010PropOp56
 70
     1
102
RTVSPost2010Prop57
140
1.0
102
RTVSPost2010PropOp57
 70
     1
  0
XRECORD
  5
24F
102
{ACAD_REACTORS
330
24E
102
}
330
24E
100
AcDbXrecord
280
     1
102
RTVSPost2010Prop28
280
     0
102
RTVSPost2010PropOp28
 70
     0
102
RTVSPost2010Prop29
280
     1
102
RTVSPost2010PropOp29
 70
     0
102
RTVSPost2010Prop30
280
     1
102
RTVSPost2010PropOp30
 70
     0
102
RTVSPost2010Prop31
280
     0
102
RTVSPost2010PropOp31
 70
     0
102
RTVSPost2010Prop32
280
     0
102
RTVSPost2010PropOp32
 70
     0
102
RTVSPost2010Prop33
280
     0
102
RTVSPost2010PropOp33
 70
     0
102
RTVSPost2010Prop34
280
     0
102
RTVSPost2010PropOp34
 70
     0
102
RTVSPost2010Prop35
280
     0
102
RTVSPost2010PropOp35
 70
     0
102
RTVSPost2010Prop36
280
     0
102
RTVSPost2010PropOp36
 70
     0
102
RTVSPost2010Prop37
 90
       50
102
RTVSPost2010PropOp37
 70
     0
102
RTVSPost2010Prop38
140
0.0
102
RTVSPost2010PropOp38
 70
     0
102
RTVSPost2010Prop39
140
1.0
102
RTVSPost2010PropOp39
 70
     0
102
RTVSPost2010Prop40
 90
        0
102
RTVSPost2010PropOp40
 70
     0
102
RTVSPost2010Prop41ColorIndex
 90
       18
102
RTVSPost2010Prop41ColorRGB
 90
        0
102
RTVSPost2010PropOp41
 70
     0
102
RTVSPost2010Prop42
 90
       50
102
RTVSPost2010PropOp42
 70
     0
102
RTVSPost2010Prop43
 90
        3
102
RTVSPost2010PropOp43
 70
     0
102
RTVSPost2010Prop44ColorIndex
 90
        5
102
RTVSPost2010Prop44ColorRGB
 90
      255
102
RTVSPost2010PropOp44
 70
     0
102
RTVSPost2010Prop45
280
     0
102
RTVSPost2010PropOp45
 70
     0
102
RTVSPost2010Prop46
 90
       50
102
RTVSPost2010PropOp46
 70
     0
102
RTVSPost2010Prop47
 90
       50
102
RTVSPost2010PropOp47
 70
     0
102
RTVSPost2010Prop48
 90
       50
102
RTVSPost2010PropOp48
 70
     0
102
RTVSPost2010Prop49
280
     0
102
RTVSPost2010PropOp49
 70
     0
102
RTVSPost2010Prop50
 90
       50
102
RTVSPost2010PropOp50
 70
     0
102
RTVSPost2010Prop51ColorIndex
 90
      256
102
RTVSPost2010Prop51ColorRGB
 90
-16777216
102
RTVSPost2010PropOp51
 70
     0
102
RTVSPost2010Prop52
140
1.0
102
RTVSPost2010PropOp52
 70
     0
102
RTVSPost2010Prop53
 90
        2
102
RTVSPost2010PropOp53
 70
     0
102
RTVSPost2010Prop54
  1
strokes_ogs.tif
102
RTVSPost2010PropOp54
 70
     0
102
RTVSPost2010Prop55
280
     0
102
RTVSPost2010PropOp55
 70
     0
102
RTVSPost2010Prop56
140
1.0
102
RTVSPost2010PropOp56
 70
     0
102
RTVSPost2010Prop57
140
1.0
102
RTVSPost2010PropOp57
 70
     0
  0
XRECORD
  5
23D
102
{ACAD_REACTORS
330
23C
102
}
330
23C
100
AcDbXrecord
280
     1
102
RTVSPost2010Prop28
280
     0
102
RTVSPost2010PropOp28
 70
     1
102
RTVSPost2010Prop29
280
     1
102
RTVSPost2010PropOp29
 70
     1
102
RTVSPost2010Prop30
280
     1
102
RTVSPost2010PropOp30
 70
     1
102
RTVSPost2010Prop31
280
     0
102
RTVSPost2010PropOp31
 70
     1
102
RTVSPost2010Prop32
280
     0
102
RTVSPost2010PropOp32
 70
     1
102
RTVSPost2010Prop33
280
     0
102
RTVSPost2010PropOp33
 70
     1
102
RTVSPost2010Prop34
280
     0
102
RTVSPost2010PropOp34
 70
     1
102
RTVSPost2010Prop35
280
     0
102
RTVSPost2010PropOp35
 70
     1
102
RTVSPost2010Prop36
280
     0
102
RTVSPost2010PropOp36
 70
     1
102
RTVSPost2010Prop37
 90
       50
102
RTVSPost2010PropOp37
 70
     1
102
RTVSPost2010Prop38
140
0.0
102
RTVSPost2010PropOp38
 70
     1
102
RTVSPost2010Prop39
140
1.0
102
RTVSPost2010PropOp39
 70
     1
102
RTVSPost2010Prop40
 90
        0
102
RTVSPost2010PropOp40
 70
     1
102
RTVSPost2010Prop41ColorIndex
 90
       18
102
RTVSPost2010Prop41ColorRGB
 90
        0
102
RTVSPost2010PropOp41
 70
     1
102
RTVSPost2010Prop42
 90
       50
102
RTVSPost2010PropOp42
 70
     1
102
RTVSPost2010Prop43
 90
        3
102
RTVSPost2010PropOp43
 70
     1
102
RTVSPost2010Prop44ColorIndex
 90
        5
102
RTVSPost2010Prop44ColorRGB
 90
      255
102
RTVSPost2010PropOp44
 70
     1
102
RTVSPost2010Prop45
280
     0
102
RTVSPost2010PropOp45
 70
     1
102
RTVSPost2010Prop46
 90
       50
102
RTVSPost2010PropOp46
 70
     1
102
RTVSPost2010Prop47
 90
       50
102
RTVSPost2010PropOp47
 70
     1
102
RTVSPost2010Prop48
 90
       50
102
RTVSPost2010PropOp48
 70
     1
102
RTVSPost2010Prop49
280
     0
102
RTVSPost2010PropOp49
 70
     1
102
RTVSPost2010Prop50
 90
       50
102
RTVSPost2010PropOp50
 70
     1
102
RTVSPost2010Prop51ColorIndex
 90
      256
102
RTVSPost2010Prop51ColorRGB
 90
-16777216
102
RTVSPost2010PropOp51
 70
     0
102
RTVSPost2010Prop52
140
1.0
102
RTVSPost2010PropOp52
 70
     0
102
RTVSPost2010Prop53
 90
        2
102
RTVSPost2010PropOp53
 70
     1
102
RTVSPost2010Prop54
  1
strokes_ogs.tif
102
RTVSPost2010PropOp54
 70
     1
102
RTVSPost2010Prop55
280
     0
102
RTVSPost2010PropOp55
 70
     1
102
RTVSPost2010Prop56
140
1.0
102
RTVSPost2010PropOp56
 70
     1
102
RTVSPost2010Prop57
140
1.0
102
RTVSPost2010PropOp57
 70
     1
  0
XRECORD
  5
25B
102
{ACAD_REACTORS
330
25A
102
}
330
25A
100
AcDbXrecord
280
     1
102
RTVSPost2010Prop28
280
     0
102
RTVSPost2010PropOp28
 70
     1
102
RTVSPost2010Prop29
280
     1
102
RTVSPost2010PropOp29
 70
     1
102
RTVSPost2010Prop30
280
     1
102
RTVSPost2010PropOp30
 70
     1
102
RTVSPost2010Prop31
280
     0
102
RTVSPost2010PropOp31
 70
     1
102
RTVSPost2010Prop32
280
     0
102
RTVSPost2010PropOp32
 70
     1
102
RTVSPost2010Prop33
280
     0
102
RTVSPost2010PropOp33
 70
     1
102
RTVSPost2010Prop34
280
     0
102
RTVSPost2010PropOp34
 70
     1
102
RTVSPost2010Prop35
280
     0
102
RTVSPost2010PropOp35
 70
     1
102
RTVSPost2010Prop36
280
     0
102
RTVSPost2010PropOp36
 70
     1
102
RTVSPost2010Prop37
 90
       50
102
RTVSPost2010PropOp37
 70
     1
102
RTVSPost2010Prop38
140
0.0
102
RTVSPost2010PropOp38
 70
     1
102
RTVSPost2010Prop39
140
1.0
102
RTVSPost2010PropOp39
 70
     1
102
RTVSPost2010Prop40
 90
        0
102
RTVSPost2010PropOp40
 70
     1
102
RTVSPost2010Prop41ColorIndex
 90
       18
102
RTVSPost2010Prop41ColorRGB
 90
        0
102
RTVSPost2010PropOp41
 70
     1
102
RTVSPost2010Prop42
 90
       50
102
RTVSPost2010PropOp42
 70
     1
102
RTVSPost2010Prop43
 90
        3
102
RTVSPost2010PropOp43
 70
     1
102
RTVSPost2010Prop44ColorIndex
 90
        5
102
RTVSPost2010Prop44ColorRGB
 90
      255
102
RTVSPost2010PropOp44
 70
     1
102
RTVSPost2010Prop45
280
     0
102
RTVSPost2010PropOp45
 70
     1
102
RTVSPost2010Prop46
 90
       50
102
RTVSPost2010PropOp46
 70
     1
102
RTVSPost2010Prop47
 90
       50
102
RTVSPost2010PropOp47
 70
     1
102
RTVSPost2010Prop48
 90
       50
102
RTVSPost2010PropOp48
 70
     1
102
RTVSPost2010Prop49
280
     0
102
RTVSPost2010PropOp49
 70
     1
102
RTVSPost2010Prop50
 90
       50
102
RTVSPost2010PropOp50
 70
     1
102
RTVSPost2010Prop51ColorIndex
 90
      256
102
RTVSPost2010Prop51ColorRGB
 90
-16777216
102
RTVSPost2010PropOp51
 70
     0
102
RTVSPost2010Prop52
140
1.0
102
RTVSPost2010PropOp52
 70
     0
102
RTVSPost2010Prop53
 90
        2
102
RTVSPost2010PropOp53
 70
     1
102
RTVSPost2010Prop54
  1
strokes_ogs.tif
102
RTVSPost2010PropOp54
 70
     1
102
RTVSPost2010Prop55
280
     0
102
RTVSPost2010PropOp55
 70
     1
102
RTVSPost2010Prop56
140
1.0
102
RTVSPost2010PropOp56
 70
     1
102
RTVSPost2010Prop57
140
1.0
102
RTVSPost2010PropOp57
 70
     1
  0
XRECORD
  5
259
102
{ACAD_REACTORS
330
258
102
}
330
258
100
AcDbXrecord
280
     1
102
RTVSPost2010Prop28
280
     0
102
RTVSPost2010PropOp28
 70
     1
102
RTVSPost2010Prop29
280
     1
102
RTVSPost2010PropOp29
 70
     1
102
RTVSPost2010Prop30
280
     1
102
RTVSPost2010PropOp30
 70
     1
102
RTVSPost2010Prop31
280
     0
102
RTVSPost2010PropOp31
 70
     1
102
RTVSPost2010Prop32
280
     0
102
RTVSPost2010PropOp32
 70
     1
102
RTVSPost2010Prop33
280
     0
102
RTVSPost2010PropOp33
 70
     1
102
RTVSPost2010Prop34
280
     0
102
RTVSPost2010PropOp34
 70
     1
102
RTVSPost2010Prop35
280
     0
102
RTVSPost2010PropOp35
 70
     1
102
RTVSPost2010Prop36
280
     0
102
RTVSPost2010PropOp36
 70
     1
102
RTVSPost2010Prop37
 90
       50
102
RTVSPost2010PropOp37
 70
     1
102
RTVSPost2010Prop38
140
0.0
102
RTVSPost2010PropOp38
 70
     1
102
RTVSPost2010Prop39
140
1.0
102
RTVSPost2010PropOp39
 70
     1
102
RTVSPost2010Prop40
 90
        0
102
RTVSPost2010PropOp40
 70
     1
102
RTVSPost2010Prop41ColorIndex
 90
       18
102
RTVSPost2010Prop41ColorRGB
 90
        0
102
RTVSPost2010PropOp41
 70
     1
102
RTVSPost2010Prop42
 90
       50
102
RTVSPost2010PropOp42
 70
     1
102
RTVSPost2010Prop43
 90
        3
102
RTVSPost2010PropOp43
 70
     1
102
RTVSPost2010Prop44ColorIndex
 90
        5
102
RTVSPost2010Prop44ColorRGB
 90
      255
102
RTVSPost2010PropOp44
 70
     1
102
RTVSPost2010Prop45
280
     0
102
RTVSPost2010PropOp45
 70
     1
102
RTVSPost2010Prop46
 90
       50
102
RTVSPost2010PropOp46
 70
     1
102
RTVSPost2010Prop47
 90
       50
102
RTVSPost2010PropOp47
 70
     1
102
RTVSPost2010Prop48
 90
       50
102
RTVSPost2010PropOp48
 70
     1
102
RTVSPost2010Prop49
280
     0
102
RTVSPost2010PropOp49
 70
     1
102
RTVSPost2010Prop50
 90
       50
102
RTVSPost2010PropOp50
 70
     1
102
RTVSPost2010Prop51ColorIndex
 90
      256
102
RTVSPost2010Prop51ColorRGB
 90
-16777216
102
RTVSPost2010PropOp51
 70
     0
102
RTVSPost2010Prop52
140
1.0
102
RTVSPost2010PropOp52
 70
     0
102
RTVSPost2010Prop53
 90
        2
102
RTVSPost2010PropOp53
 70
     1
102
RTVSPost2010Prop54
  1
strokes_ogs.tif
102
RTVSPost2010PropOp54
 70
     1
102
RTVSPost2010Prop55
280
     0
102
RTVSPost2010PropOp55
 70
     1
102
RTVSPost2010Prop56
140
1.0
102
RTVSPost2010PropOp56
 70
     1
102
RTVSPost2010Prop57
140
1.0
102
RTVSPost2010PropOp57
 70
     1
  0
XRECORD
  5
253
102
{ACAD_REACTORS
330
252
102
}
330
252
100
AcDbXrecord
280
     1
102
RTVSPost2010Prop28
280
     0
102
RTVSPost2010PropOp28
 70
     1
102
RTVSPost2010Prop29
280
     1
102
RTVSPost2010PropOp29
 70
     1
102
RTVSPost2010Prop30
280
     1
102
RTVSPost2010PropOp30
 70
     1
102
RTVSPost2010Prop31
280
     0
102
RTVSPost2010PropOp31
 70
     1
102
RTVSPost2010Prop32
280
     0
102
RTVSPost2010PropOp32
 70
     1
102
RTVSPost2010Prop33
280
     0
102
RTVSPost2010PropOp33
 70
     1
102
RTVSPost2010Prop34
280
     0
102
RTVSPost2010PropOp34
 70
     1
102
RTVSPost2010Prop35
280
     0
102
RTVSPost2010PropOp35
 70
     1
102
RTVSPost2010Prop36
280
     0
102
RTVSPost2010PropOp36
 70
     1
102
RTVSPost2010Prop37
 90
       50
102
RTVSPost2010PropOp37
 70
     1
102
RTVSPost2010Prop38
140
0.0
102
RTVSPost2010PropOp38
 70
     1
102
RTVSPost2010Prop39
140
1.0
102
RTVSPost2010PropOp39
 70
     1
102
RTVSPost2010Prop40
 90
        0
102
RTVSPost2010PropOp40
 70
     1
102
RTVSPost2010Prop41ColorIndex
 90
       18
102
RTVSPost2010Prop41ColorRGB
 90
        0
102
RTVSPost2010PropOp41
 70
     1
102
RTVSPost2010Prop42
 90
       50
102
RTVSPost2010PropOp42
 70
     1
102
RTVSPost2010Prop43
 90
        3
102
RTVSPost2010PropOp43
 70
     1
102
RTVSPost2010Prop44ColorIndex
 90
        5
102
RTVSPost2010Prop44ColorRGB
 90
      255
102
RTVSPost2010PropOp44
 70
     1
102
RTVSPost2010Prop45
280
     0
102
RTVSPost2010PropOp45
 70
     1
102
RTVSPost2010Prop46
 90
       50
102
RTVSPost2010PropOp46
 70
     1
102
RTVSPost2010Prop47
 90
       50
102
RTVSPost2010PropOp47
 70
     1
102
RTVSPost2010Prop48
 90
       50
102
RTVSPost2010PropOp48
 70
     1
102
RTVSPost2010Prop49
280
     0
102
RTVSPost2010PropOp49
 70
     1
102
RTVSPost2010Prop50
 90
       50
102
RTVSPost2010PropOp50
 70
     1
102
RTVSPost2010Prop51ColorIndex
 90
      256
102
RTVSPost2010Prop51ColorRGB
 90
-16777216
102
RTVSPost2010PropOp51
 70
     0
102
RTVSPost2010Prop52
140
1.0
102
RTVSPost2010PropOp52
 70
     0
102
RTVSPost2010Prop53
 90
        2
102
RTVSPost2010PropOp53
 70
     1
102
RTVSPost2010Prop54
  1
strokes_ogs.tif
102
RTVSPost2010PropOp54
 70
     1
102
RTVSPost2010Prop55
280
     0
102
RTVSPost2010PropOp55
 70
     1
102
RTVSPost2010Prop56
140
1.0
102
RTVSPost2010PropOp56
 70
     1
102
RTVSPost2010Prop57
140
1.0
102
RTVSPost2010PropOp57
 70
     1
  0
XRECORD
  5
255
102
{ACAD_REACTORS
330
254
102
}
330
254
100
AcDbXrecord
280
     1
102
RTVSPost2010Prop28
280
     0
102
RTVSPost2010PropOp28
 70
     1
102
RTVSPost2010Prop29
280
     1
102
RTVSPost2010PropOp29
 70
     1
102
RTVSPost2010Prop30
280
     1
102
RTVSPost2010PropOp30
 70
     1
102
RTVSPost2010Prop31
280
     0
102
RTVSPost2010PropOp31
 70
     1
102
RTVSPost2010Prop32
280
     0
102
RTVSPost2010PropOp32
 70
     1
102
RTVSPost2010Prop33
280
     0
102
RTVSPost2010PropOp33
 70
     1
102
RTVSPost2010Prop34
280
     0
102
RTVSPost2010PropOp34
 70
     1
102
RTVSPost2010Prop35
280
     0
102
RTVSPost2010PropOp35
 70
     1
102
RTVSPost2010Prop36
280
     0
102
RTVSPost2010PropOp36
 70
     1
102
RTVSPost2010Prop37
 90
       50
102
RTVSPost2010PropOp37
 70
     1
102
RTVSPost2010Prop38
140
0.0
102
RTVSPost2010PropOp38
 70
     1
102
RTVSPost2010Prop39
140
1.0
102
RTVSPost2010PropOp39
 70
     1
102
RTVSPost2010Prop40
 90
        0
102
RTVSPost2010PropOp40
 70
     1
102
RTVSPost2010Prop41ColorIndex
 90
       18
102
RTVSPost2010Prop41ColorRGB
 90
        0
102
RTVSPost2010PropOp41
 70
     1
102
RTVSPost2010Prop42
 90
       50
102
RTVSPost2010PropOp42
 70
     1
102
RTVSPost2010Prop43
 90
        3
102
RTVSPost2010PropOp43
 70
     1
102
RTVSPost2010Prop44ColorIndex
 90
        5
102
RTVSPost2010Prop44ColorRGB
 90
      255
102
RTVSPost2010PropOp44
 70
     1
102
RTVSPost2010Prop45
280
     0
102
RTVSPost2010PropOp45
 70
     1
102
RTVSPost2010Prop46
 90
       50
102
RTVSPost2010PropOp46
 70
     1
102
RTVSPost2010Prop47
 90
       50
102
RTVSPost2010PropOp47
 70
     1
102
RTVSPost2010Prop48
 90
       50
102
RTVSPost2010PropOp48
 70
     1
102
RTVSPost2010Prop49
280
     0
102
RTVSPost2010PropOp49
 70
     1
102
RTVSPost2010Prop50
 90
       50
102
RTVSPost2010PropOp50
 70
     1
102
RTVSPost2010Prop51ColorIndex
 90
      256
102
RTVSPost2010Prop51ColorRGB
 90
-16777216
102
RTVSPost2010PropOp51
 70
     0
102
RTVSPost2010Prop52
140
1.0
102
RTVSPost2010PropOp52
 70
     0
102
RTVSPost2010Prop53
 90
        2
102
RTVSPost2010PropOp53
 70
     1
102
RTVSPost2010Prop54
  1
strokes_ogs.tif
102
RTVSPost2010PropOp54
 70
     1
102
RTVSPost2010Prop55
280
     0
102
RTVSPost2010PropOp55
 70
     1
102
RTVSPost2010Prop56
140
1.0
102
RTVSPost2010PropOp56
 70
     1
102
RTVSPost2010Prop57
140
1.0
102
RTVSPost2010PropOp57
 70
     1
  0
XRECORD
  5
245
102
{ACAD_REACTORS
330
244
102
}
330
244
100
AcDbXrecord
280
     1
102
RTVSPost2010Prop28
280
     0
102
RTVSPost2010PropOp28
 70
     1
102
RTVSPost2010Prop29
280
     1
102
RTVSPost2010PropOp29
 70
     1
102
RTVSPost2010Prop30
280
     1
102
RTVSPost2010PropOp30
 70
     1
102
RTVSPost2010Prop31
280
     0
102
RTVSPost2010PropOp31
 70
     1
102
RTVSPost2010Prop32
280
     0
102
RTVSPost2010PropOp32
 70
     1
102
RTVSPost2010Prop33
280
     0
102
RTVSPost2010PropOp33
 70
     1
102
RTVSPost2010Prop34
280
     0
102
RTVSPost2010PropOp34
 70
     1
102
RTVSPost2010Prop35
280
     0
102
RTVSPost2010PropOp35
 70
     1
102
RTVSPost2010Prop36
280
     0
102
RTVSPost2010PropOp36
 70
     1
102
RTVSPost2010Prop37
 90
       50
102
RTVSPost2010PropOp37
 70
     1
102
RTVSPost2010Prop38
140
0.0
102
RTVSPost2010PropOp38
 70
     1
102
RTVSPost2010Prop39
140
1.0
102
RTVSPost2010PropOp39
 70
     1
102
RTVSPost2010Prop40
 90
        0
102
RTVSPost2010PropOp40
 70
     1
102
RTVSPost2010Prop41ColorIndex
 90
       18
102
RTVSPost2010Prop41ColorRGB
 90
        0
102
RTVSPost2010PropOp41
 70
     1
102
RTVSPost2010Prop42
 90
       50
102
RTVSPost2010PropOp42
 70
     1
102
RTVSPost2010Prop43
 90
        3
102
RTVSPost2010PropOp43
 70
     1
102
RTVSPost2010Prop44ColorIndex
 90
        5
102
RTVSPost2010Prop44ColorRGB
 90
      255
102
RTVSPost2010PropOp44
 70
     1
102
RTVSPost2010Prop45
280
     0
102
RTVSPost2010PropOp45
 70
     1
102
RTVSPost2010Prop46
 90
       50
102
RTVSPost2010PropOp46
 70
     1
102
RTVSPost2010Prop47
 90
       50
102
RTVSPost2010PropOp47
 70
     1
102
RTVSPost2010Prop48
 90
       50
102
RTVSPost2010PropOp48
 70
     1
102
RTVSPost2010Prop49
280
     0
102
RTVSPost2010PropOp49
 70
     1
102
RTVSPost2010Prop50
 90
       50
102
RTVSPost2010PropOp50
 70
     1
102
RTVSPost2010Prop51ColorIndex
 90
      256
102
RTVSPost2010Prop51ColorRGB
 90
-16777216
102
RTVSPost2010PropOp51
 70
     0
102
RTVSPost2010Prop52
140
1.0
102
RTVSPost2010PropOp52
 70
     0
102
RTVSPost2010Prop53
 90
        2
102
RTVSPost2010PropOp53
 70
     1
102
RTVSPost2010Prop54
  1
strokes_ogs.tif
102
RTVSPost2010PropOp54
 70
     1
102
RTVSPost2010Prop55
280
     0
102
RTVSPost2010PropOp55
 70
     1
102
RTVSPost2010Prop56
140
1.0
102
RTVSPost2010PropOp56
 70
     1
102
RTVSPost2010Prop57
140
1.0
102
RTVSPost2010PropOp57
 70
     1
  0
XRECORD
  5
237
102
{ACAD_REACTORS
330
236
102
}
330
236
100
AcDbXrecord
280
     1
102
RTVSPost2010Prop28
280
     0
102
RTVSPost2010PropOp28
 70
     1
102
RTVSPost2010Prop29
280
     1
102
RTVSPost2010PropOp29
 70
     1
102
RTVSPost2010Prop30
280
     1
102
RTVSPost2010PropOp30
 70
     1
102
RTVSPost2010Prop31
280
     0
102
RTVSPost2010PropOp31
 70
     1
102
RTVSPost2010Prop32
280
     0
102
RTVSPost2010PropOp32
 70
     1
102
RTVSPost2010Prop33
280
     0
102
RTVSPost2010PropOp33
 70
     1
102
RTVSPost2010Prop34
280
     0
102
RTVSPost2010PropOp34
 70
     1
102
RTVSPost2010Prop35
280
     0
102
RTVSPost2010PropOp35
 70
     1
102
RTVSPost2010Prop36
280
     0
102
RTVSPost2010PropOp36
 70
     1
102
RTVSPost2010Prop37
 90
       50
102
RTVSPost2010PropOp37
 70
     1
102
RTVSPost2010Prop38
140
0.0
102
RTVSPost2010PropOp38
 70
     1
102
RTVSPost2010Prop39
140
1.0
102
RTVSPost2010PropOp39
 70
     1
102
RTVSPost2010Prop40
 90
        0
102
RTVSPost2010PropOp40
 70
     1
102
RTVSPost2010Prop41ColorIndex
 90
       18
102
RTVSPost2010Prop41ColorRGB
 90
        0
102
RTVSPost2010PropOp41
 70
     1
102
RTVSPost2010Prop42
 90
       50
102
RTVSPost2010PropOp42
 70
     1
102
RTVSPost2010Prop43
 90
        3
102
RTVSPost2010PropOp43
 70
     1
102
RTVSPost2010Prop44ColorIndex
 90
        5
102
RTVSPost2010Prop44ColorRGB
 90
      255
102
RTVSPost2010PropOp44
 70
     1
102
RTVSPost2010Prop45
280
     0
102
RTVSPost2010PropOp45
 70
     1
102
RTVSPost2010Prop46
 90
       50
102
RTVSPost2010PropOp46
 70
     1
102
RTVSPost2010Prop47
 90
       50
102
RTVSPost2010PropOp47
 70
     1
102
RTVSPost2010Prop48
 90
       50
102
RTVSPost2010PropOp48
 70
     1
102
RTVSPost2010Prop49
280
     0
102
RTVSPost2010PropOp49
 70
     1
102
RTVSPost2010Prop50
 90
       50
102
RTVSPost2010PropOp50
 70
     1
102
RTVSPost2010Prop51ColorIndex
 90
      256
102
RTVSPost2010Prop51ColorRGB
 90
-16777216
102
RTVSPost2010PropOp51
 70
     0
102
RTVSPost2010Prop52
140
1.0
102
RTVSPost2010PropOp52
 70
     0
102
RTVSPost2010Prop53
 90
        2
102
RTVSPost2010PropOp53
 70
     1
102
RTVSPost2010Prop54
  1
strokes_ogs.tif
102
RTVSPost2010PropOp54
 70
     1
102
RTVSPost2010Prop55
280
     0
102
RTVSPost2010PropOp55
 70
     1
102
RTVSPost2010Prop56
140
1.0
102
RTVSPost2010PropOp56
 70
     1
102
RTVSPost2010Prop57
140
1.0
102
RTVSPost2010PropOp57
 70
     1
  0
XRECORD
  5
257
102
{ACAD_REACTORS
330
256
102
}
330
256
100
AcDbXrecord
280
     1
102
RTVSPost2010Prop28
280
     0
102
RTVSPost2010PropOp28
 70
     1
102
RTVSPost2010Prop29
280
     1
102
RTVSPost2010PropOp29
 70
     1
102
RTVSPost2010Prop30
280
     1
102
RTVSPost2010PropOp30
 70
     1
102
RTVSPost2010Prop31
280
     0
102
RTVSPost2010PropOp31
 70
     1
102
RTVSPost2010Prop32
280
     0
102
RTVSPost2010PropOp32
 70
     1
102
RTVSPost2010Prop33
280
     0
102
RTVSPost2010PropOp33
 70
     1
102
RTVSPost2010Prop34
280
     0
102
RTVSPost2010PropOp34
 70
     1
102
RTVSPost2010Prop35
280
     0
102
RTVSPost2010PropOp35
 70
     1
102
RTVSPost2010Prop36
280
     0
102
RTVSPost2010PropOp36
 70
     1
102
RTVSPost2010Prop37
 90
       50
102
RTVSPost2010PropOp37
 70
     1
102
RTVSPost2010Prop38
140
0.0
102
RTVSPost2010PropOp38
 70
     1
102
RTVSPost2010Prop39
140
1.0
102
RTVSPost2010PropOp39
 70
     1
102
RTVSPost2010Prop40
 90
        0
102
RTVSPost2010PropOp40
 70
     1
102
RTVSPost2010Prop41ColorIndex
 90
       18
102
RTVSPost2010Prop41ColorRGB
 90
        0
102
RTVSPost2010PropOp41
 70
     1
102
RTVSPost2010Prop42
 90
       50
102
RTVSPost2010PropOp42
 70
     1
102
RTVSPost2010Prop43
 90
        3
102
RTVSPost2010PropOp43
 70
     1
102
RTVSPost2010Prop44ColorIndex
 90
        5
102
RTVSPost2010Prop44ColorRGB
 90
      255
102
RTVSPost2010PropOp44
 70
     1
102
RTVSPost2010Prop45
280
     0
102
RTVSPost2010PropOp45
 70
     1
102
RTVSPost2010Prop46
 90
       50
102
RTVSPost2010PropOp46
 70
     1
102
RTVSPost2010Prop47
 90
       50
102
RTVSPost2010PropOp47
 70
     1
102
RTVSPost2010Prop48
 90
       50
102
RTVSPost2010PropOp48
 70
     1
102
RTVSPost2010Prop49
280
     0
102
RTVSPost2010PropOp49
 70
     1
102
RTVSPost2010Prop50
 90
       50
102
RTVSPost2010PropOp50
 70
     1
102
RTVSPost2010Prop51ColorIndex
 90
      256
102
RTVSPost2010Prop51ColorRGB
 90
-16777216
102
RTVSPost2010PropOp51
 70
     0
102
RTVSPost2010Prop52
140
1.0
102
RTVSPost2010PropOp52
 70
     0
102
RTVSPost2010Prop53
 90
        2
102
RTVSPost2010PropOp53
 70
     1
102
RTVSPost2010Prop54
  1
strokes_ogs.tif
102
RTVSPost2010PropOp54
 70
     1
102
RTVSPost2010Prop55
280
     0
102
RTVSPost2010PropOp55
 70
     1
102
RTVSPost2010Prop56
140
1.0
102
RTVSPost2010PropOp56
 70
     1
102
RTVSPost2010Prop57
140
1.0
102
RTVSPost2010PropOp57
 70
     1
  0
ENDSEC
  0
EOF
